<?xml version="1.0" standalone="no"?> 
<!DOCTYPE svg PUBLIC "-//W3C//DTD SVG 1.1//EN" "http://www.w3.org/Graphics/SVG/1.1/DTD/svg11.dtd" >
<svg xmlns="http://www.w3.org/2000/svg">
<defs>
  <font id="azuremediaplayer" horiz-adv-x="1024">
    <font-face font-family="azuremediaplayer"
      units-per-em="1024" ascent="1024"
      descent="0" />
    <missing-glyph horiz-adv-x="0" />
    <glyph glyph-name="space"
      unicode="&#x20;"
      horiz-adv-x="1024" d="" />
    <glyph glyph-name="audio-only-a"
      unicode="&#xE600;"
      horiz-adv-x="1024" d=" M512 832C335.296 832 192 688.704 192 512L192 502.1249984C117.5868992 480.092128 64 421.5833536 64 352C64 263.616 149.952 192 256 192L256 310.2499840000001L256 512C256 653.184 370.816 768 512 768C653.184 768 768 653.184 768 512L768 310.2499840000001L768 192C874.048 192 960 263.616 960 352C960 421.5833536 906.41312 480.092128 832 502.1249984L832 512C832 688.704 688.704 832 512 832z" />
    <glyph glyph-name="play"
      unicode="&#xE601;"
      horiz-adv-x="1024" d=" M853.312 514.1120000000001L256 85.312L256 938.688z" />
    <glyph glyph-name="pause"
      unicode="&#xE602;"
      horiz-adv-x="1024" d=" M256 896H448V128H256V896z M640 896H832V128H640V896z" />
    <glyph glyph-name="play-large"
      unicode="&#xE603;"
      horiz-adv-x="1024" d=" M514.49656896 983.96536704C255.70189711744 983.96536704 45.16322624 773.42669616256 45.16322624 514.63202432C45.16322624 255.8373524774401 255.70189711744 45.2986816 514.49656896 45.2986816C773.29124080256 45.2986816 983.82991168 255.8373524774401 983.82991168 514.63202432C983.82991168 773.42669616256 773.29124080256 983.96536704 514.49656896 983.96536704zM365.16323264 194.6320179200001L365.16323264 834.63203072L813.1632416 516.232024352L365.16323264 194.6320179200001z" />
    <glyph glyph-name="play-large-bg"
      unicode="&#xE604;"
      horiz-adv-x="1024" d=" M-0.52642688 511.8683878400001C-0.52642688 229.098590271238 228.7037857912379 -0.1316224 511.47358336 -0.1316224C794.243380928762 -0.1316224 1023.4735935999998 229.098590271238 1023.4735935999998 511.8683878400001C1023.4735935999998 794.6381854087622 794.243380928762 1023.86839808 511.47358336 1023.86839808C228.7037857912379 1023.86839808 -0.52642688 794.6381854087622 -0.52642688 511.8683878400001z" />
    <glyph glyph-name="sound-on"
      unicode="&#xE605;"
      horiz-adv-x="1024" d=" M779.776 806.4C767.2959999999999 818.88 746.752 818.88 734.2719999999999 806.4C722.2399999999999 793.9200000000001 722.2399999999999 773.888 734.2719999999999 761.408C803.328 692.3520000000001 837.824 602.368 837.824 512.32C837.824 421.76 803.8399999999999 331.7760000000001 734.2719999999999 262.7200000000001C722.2399999999999 250.24 722.2399999999999 229.6960000000001 734.2719999999999 217.216C740.8 211.2000000000001 748.8 208.192 757.3119999999999 208.192C765.3119999999999 208.192 773.3119999999999 211.2000000000001 779.8399999999999 217.216C861.376 298.752 901.888 405.76 901.888 512.3199999999999S860.8 725.376 779.776 806.4zM678.72 705.408C666.24 717.888 646.2080000000001 717.888 633.7280000000001 705.408C621.248 692.928 621.248 672.896 633.7280000000001 660.4159999999999C674.7520000000001 619.392 695.2320000000001 565.8879999999999 695.2320000000001 511.872C695.2320000000001 458.3679999999999 674.7520000000001 404.8639999999999 633.7280000000001 363.8399999999999C621.248 351.3599999999999 621.248 330.8159999999999 633.7280000000001 318.3359999999999C640.2560000000001 312.32 648.2560000000001 309.3119999999999 656.2560000000001 309.3119999999999C664.768 309.3119999999999 672.768 312.32 678.7840000000001 318.3359999999999C732.2880000000001 371.8399999999999 759.296 442.368 758.7840000000001 511.9359999999999C759.232 581.8240000000001 732.224 651.8399999999999 678.72 705.408zM128 640V384H256L512 192V832L256 640H128z" />
    <glyph glyph-name="mute"
      unicode="&#xE606;"
      horiz-adv-x="1024" d=" M512 832L256 640L128 640L128 384L256 384L512 192L512 832zM693.875008 662.6249984A32.0032 32.0032 0 0 1 671.625024 607.7500032L781 498.5L671.625024 389.1249984A32.0032 32.0032 0 1 1 716.875008 343.875008L826.249984 453.2499968L935.500032 343.875008A32.0032 32.0032 0 1 1 980.750016 389.1249984L871.500032 498.5L980.750016 607.7500032A32.0032 32.0032 0 0 1 957.500032 662.6249984A32.0032 32.0032 0 0 1 935.500032 653L826.249984 543.7500032L716.875008 653A32.0032 32.0032 0 0 1 693.875008 662.6249984z" />
    <glyph glyph-name="fullscreen"
      unicode="&#xE607;"
      horiz-adv-x="1024" d=" M512 832L448 768L722.752 768L489.344 534.656L534.656 489.3440000000001L768 722.752L768 448L832 512L832 832z M512 192L576 256L301.248 256L534.656 489.3440000000001L489.344 534.656L256 301.2480000000001L256 576L192 512L192 192z" />
    <glyph glyph-name="exit-fullscreen"
      unicode="&#xE608;"
      horiz-adv-x="1024" d=" M192 512.1279999999999L128 448.1280000000001L402.752 448.1280000000001L169.344 214.784L214.656 169.536L448 402.88L448 128.1280000000001L512 192.1280000000001L512 512.1279999999999z M832 512.1279999999999L896 576.1279999999999L621.248 576.1279999999999L854.656 809.5360000000001L809.344 854.784L576 621.376L576 896.128L512 832.1279999999999L512 512.1279999999999z" />
    <glyph glyph-name="scrubber-hover"
      unicode="&#xE609;"
      horiz-adv-x="1024" d=" M512 904.6779648C441.28 904.6779648 384 847.3979648 384 776.6779647999999L384 264.6779648C384 194.0219648 441.28 136.6779647999999 512 136.6779647999999C582.72 136.6779647999999 640 194.0219648 640 264.6779648L640 776.6779647999999C640 847.3979648 582.72 904.6779648 512 904.6779648z" />
    <glyph glyph-name="volume-slider"
      unicode="&#xE60A;"
      horiz-adv-x="1024" d=" M896.0000028444445 668.4444416L128.0000028444444 668.4444416C57.2800028444444 668.4444416 0.0000028444444 611.1644416 0.0000028444444 540.4444416C0.0000028444444 469.7244416 57.2800028444444 412.4444416 128.0000028444444 412.4444416L896.0000028444445 412.4444416C966.7200028444444 412.4444416 1024.0000028444445 469.7244416 1024.0000028444445 540.4444416C1024.0000028444445 611.1644416 966.7200028444444 668.4444416 896.0000028444445 668.4444416z" />
    <glyph glyph-name="subtitles"
      unicode="&#xE60B;"
      horiz-adv-x="1024" d=" M832 832H192C121.6 832 64 774.4 64 704V384C64 313.6 121.6 256 192 256H416L640 32V256H832C902.4 256 960 313.6 960 384V704C960 774.4 902.4 832 832 832zM256 704H768V640H256V704zM768 384H256V448H768V384zM832 512H192V576H832V512z" />
    <glyph glyph-name="closed-captioning"
      unicode="&#xE60C;"
      horiz-adv-x="1024" d=" M64 896V256H416L640 32V256H960V896H64zM809.28 393.216C803.52 369.7280000000001 791.552 359.7440000000001 768.768 351.872C732.416 339.328 654.976 319.9359999999999 512.0640000000001 319.9359999999999S291.7120000000001 339.328 255.3600000000001 351.872C232.5120000000001 359.7439999999999 220.6080000000001 369.728 214.8480000000001 393.216C200.448 451.648 192 516.288 192 575.9359999999999C192 635.5840000000001 200.448 700.2239999999999 214.72 758.656C220.48 782.144 232.448 792.1279999999999 255.296 800C291.648 812.544 369.024 831.936 512 831.936S732.352 812.544 768.704 800C791.5519999999999 792.1279999999999 803.4559999999999 782.144 809.2159999999999 758.656C823.552 700.2239999999999 832 635.5840000000001 832 575.9359999999999C832 516.288 823.552 451.648 809.28 393.216z" />
    <glyph glyph-name="ellipsis"
      unicode="&#xE60D;"
      horiz-adv-x="1024" d=" M83.2 512C83.2 451.9114192184097 131.9114192184097 403.2000000000001 192 403.2000000000001C252.0885807815904 403.2000000000001 300.8 451.9114192184097 300.8 512C300.8 572.0885807815903 252.0885807815904 620.8 192 620.8C131.9114192184097 620.8 83.2 572.0885807815903 83.2 512z M403.2 512C403.2 451.9114192184097 451.9114192184097 403.2000000000001 512 403.2000000000001C572.0885807815903 403.2000000000001 620.8 451.9114192184097 620.8 512C620.8 572.0885807815903 572.0885807815903 620.8 512 620.8C451.9114192184097 620.8 403.2 572.0885807815903 403.2 512z M723.2 512C723.2 451.9114192184097 771.9114192184097 403.2000000000001 832 403.2000000000001C892.0885807815903 403.2000000000001 940.8 451.9114192184097 940.8 512C940.8 572.0885807815903 892.0885807815903 620.8 832 620.8C771.9114192184097 620.8 723.2 572.0885807815903 723.2 512z" />
    <glyph glyph-name="error"
      unicode="&#xE60E;"
      horiz-adv-x="1024" d=" M1025.90382994432 580.4355031129601C1020.18649649664 652.6061712230401 1010.69316297344 724.54217266176 989.61582921856 794.48350739392C978.61849566528 830.9208414560001 953.76516183488 853.13950856704 917.40249444096 865.52350881472C859.33315994624 885.25684254272 799.11982540864 893.41684270592 738.47982419584 899.95550950336C695.22648999744 904.61684292992 651.8664891302401 907.16617631424 608.49582159616 908.51017634112L501.56248612416 811.4541744L597.0611547008 705.28883894336L505.5944862048 597.55550345536L547.6744870463999 492.0728346790401L520.5278198368 383.4968325075201L536.35715348672 490.83550132096L471.77048552832 598.6861701446401L540.30382023232 704.28617225664L422.47981787584 811.4541744L511.0024863129599 909.63017636352C438.02115152 910.11017637312 364.98648339264 907.80617632704 292.21848193728 899.96617617024C231.57848072448 893.4168427059201 171.36514618688 885.25684254272 113.29581169216 865.5341754816C76.94381096512 853.15017523392 52.07981046784 830.93150812288 41.08247691456 794.4941740608C20.01580982656 724.55283932864 10.51180963648 652.6275045568 4.7944761888 580.44616977984C2.86380948352 556.1261692934401 2.86380948352 458.80350068032 4.7944761888 434.48350019392C10.51180963648 362.31283208384 20.00514315968 290.37683064512 41.08247691456 220.44616257984C52.07981046784 184.00882851776 76.93314429824 161.7794947398401 113.29581169216 149.4061611590401C171.36514618688 129.66216076416 231.57848072448 121.50216060096 292.21848193728 114.96349380352C366.42648342144 106.96349364352 440.92248491136 104.69149359808 515.3544864 105.2888269433601C589.77582122176 104.69149359808 664.2824893785601 106.96349364352 738.49049086272 114.96349380352C799.13049207552 121.51282726784 859.34382661312 129.67282743104 917.41316110784 149.4061611590401C953.76516183488 161.7794947398401 978.62916233216 184.0088285177601 989.62649588544 220.44616257984C1010.69316297344 290.37683064512 1020.19716316352 362.31283208384 1025.9144966112 434.48350019392C1027.8344966496002 458.79283401344 1027.8344966496002 556.11550262656 1025.90382994432 580.43550311296z" />
    <glyph glyph-name="fast-forward"
      unicode="&#xE60F;"
      horiz-adv-x="1024" d=" M876.8 513.28L518.4 256L518.4 768z M492.8 513.28L134.4 256L134.4 768z" />
    <glyph glyph-name="fast-forward-2x"
      unicode="&#xE610;"
      horiz-adv-x="1024" d=" M512 704L256 512.1279999999999L256 896.128z M256 704L0 512L0 896z M702.016 26.496H477.056V54.2719999999999C477.056 65.664 478.656 76.2879999999999 481.792 86.1439999999999C484.928 96.0639999999999 489.216 105.4079999999999 494.528 114.1759999999999C499.84 122.88 506.112 131.136 513.28 138.88C520.448 146.624 528.1279999999999 154.112 536.256 161.408C544.384 168.64 552.768 175.6800000000001 561.28 182.4S578.112 195.968 586.304 202.752C593.9839999999999 209.28 600.9599999999999 215.616 607.2959999999999 221.8879999999999C613.632 228.16 619.0719999999999 234.6239999999999 623.5519999999999 241.28C628.0319999999999 247.9359999999999 631.5519999999999 255.04 634.0479999999999 262.4C636.5439999999999 269.824 637.8239999999998 277.8879999999999 637.8239999999998 286.528C637.8239999999998 296 636.3519999999999 304.3200000000001 633.4719999999999 311.424C630.5279999999999 318.528 626.4959999999999 324.416 621.2479999999998 329.152S609.7919999999998 337.536 602.6239999999998 339.9039999999999C595.4559999999998 342.3359999999999 587.6479999999998 343.5519999999999 579.1359999999997 343.5519999999999C564.4799999999998 343.5519999999999 549.5679999999998 340.1599999999999 534.3999999999997 333.3119999999999C519.2319999999997 326.5279999999999 504.6399999999998 316.224 490.6239999999997 302.5919999999999V358.3359999999999C497.9839999999998 363.8399999999999 505.3439999999998 368.6399999999999 512.8959999999997 372.7359999999999C520.3839999999998 376.8319999999999 528.1279999999997 380.224 536.1279999999997 382.9759999999999S552.448 387.712 561.28 388.992C570.112 390.4 579.52 390.976 589.504 390.976C605.6320000000001 390.976 620.352 388.8640000000001 633.5360000000001 384.576C646.72 380.352 657.9200000000001 374.0800000000001 667.264 365.8240000000001C676.6080000000001 357.5680000000001 683.7760000000001 347.3280000000001 688.896 334.9760000000001C693.952 322.6880000000001 696.512 308.4800000000002 696.512 292.4800000000002C696.512 277.9520000000001 694.7199999999999 264.9600000000002 691.136 253.3760000000001C687.552 241.7920000000002 682.496 230.9760000000001 675.904 220.9920000000001C669.312 211.0080000000001 661.376 201.4720000000001 652.032 192.5120000000001C642.688 183.4880000000001 632.2560000000001 174.2720000000001 620.8000000000001 164.7360000000001C611.1360000000001 156.9280000000001 601.4720000000001 149.3120000000001 591.936 141.8880000000002C582.336 134.5280000000001 573.696 127.2320000000002 566.08 120.1280000000002C558.4000000000001 113.0880000000002 552.192 105.9840000000002 547.456 98.8800000000001C542.72 91.8400000000002 540.352 84.6720000000001 540.352 77.5040000000001V76.2240000000002H702.0799999999999V26.496z M1029.504 282.496L944.2559999999997 153.024L1028.4799999999998 26.496H961.2159999999998L916.2239999999998 105.728C913.4079999999998 110.592 910.0799999999998 116.736 906.2399999999998 124.2239999999999H905.2159999999998C904.5759999999998 122.752 901.0559999999998 116.608 894.7199999999998 105.728L848.9599999999998 26.496H781.9519999999998L868.9279999999998 152L786.4319999999998 282.496H853.9519999999998L898.1759999999998 199.232C901.5039999999998 193.088 904.7679999999998 186.752 907.9039999999998 180.2239999999999H908.6719999999998L965.9519999999998 282.496H1029.504z" />
    <glyph glyph-name="fast-forward-4x"
      unicode="&#xE611;"
      horiz-adv-x="1024" d=" M512 704L256 512.1279999999999L256 896.128z M256 704L0 512L0 896z M693.76 385.024V153.5360000000001H747.008V105.2800000000001H693.76V26.5600000000001H637.504V105.2800000000001H475.264V154.0480000000001C489.92 170.5600000000002 504.96 188.4160000000002 520.384 207.6800000000001C535.808 226.9440000000001 550.6560000000001 246.5920000000001 564.864 266.6880000000001C579.1360000000001 286.7840000000001 592.32 306.9440000000001 604.48 327.0400000000001C616.64 347.2000000000001 626.88 366.528 635.2 385.0240000000001H693.76zM637.504 153.472V304C619.328 271.36 601.408 242.88 583.616 218.496C565.888 194.1759999999999 549.2479999999999 172.48 533.76 153.472H637.504z M1029.504 282.496L944.2559999999997 153.024L1028.4799999999998 26.496H961.28L916.288 105.728C913.472 110.592 910.144 116.736 906.304 124.2239999999999H905.28C904.64 122.752 901.12 116.608 894.784 105.728L849.024 26.496H782.016L868.992 152L786.496 282.496H854.016L898.24 199.232C901.568 193.088 904.832 186.752 907.968 180.2239999999999H908.736L966.016 282.496H1029.504z" />
    <glyph glyph-name="fast-forward-8x"
      unicode="&#xE612;"
      horiz-adv-x="1024" d=" M512 704L256 512.1279999999999L256 896.128z M256 704L0 512L0 896z M454.784 126.528C454.784 136.8960000000001 456.064 146.88 458.688 156.544C461.248 166.208 465.152 175.168 470.336 183.2959999999999C475.52 191.488 481.984 198.7839999999999 489.856 205.3119999999999C497.664 211.8399999999999 506.88 217.0879999999999 517.376 221.0559999999999C501.888 229.7599999999999 489.536 240.896 480.384 254.4C471.104 267.968 466.56 283.0080000000001 466.56 299.52C466.56 312.704 469.248 324.8640000000001 474.688 336C480.064 347.2000000000001 487.616 356.8640000000001 497.216 364.992C506.816 373.184 518.08 379.584 531.072 384.128C544.064 388.7359999999999 558.208 390.9759999999999 573.568 390.9759999999999C589.056 390.9759999999999 603.328 388.6719999999999 616.448 383.9999999999999C629.504 379.392 640.832 372.9279999999999 650.432 364.7359999999999C660.032 356.6079999999999 667.456 346.9439999999999 672.832 335.7439999999999C678.144 324.608 680.832 312.512 680.832 299.5199999999999C680.832 283.0079999999998 676.224 268.032 667.072 254.3999999999999C657.92 240.8319999999999 645.76 229.6959999999999 630.592 221.0559999999998C640.896 217.0239999999998 650.048 211.8399999999998 657.984 205.4399999999998C665.9200000000001 199.0399999999999 672.5120000000001 191.7439999999998 677.888 183.5519999999998C683.2 175.4239999999998 687.2320000000001 166.4639999999998 689.9200000000001 156.7999999999999C692.6080000000001 147.1999999999998 693.9520000000001 137.0239999999999 693.9520000000001 126.5279999999998C693.9520000000001 110.9119999999998 691.0080000000002 96.5119999999998 685.1840000000001 83.5199999999998C679.3600000000001 70.5279999999998 671.1680000000001 59.3919999999997 660.672 50.1759999999997S637.568 33.7279999999997 622.912 28.5439999999998C608.2560000000001 23.4239999999998 592.0640000000001 20.7999999999997 574.4000000000001 20.7999999999997C556.9280000000001 20.7999999999997 540.864 23.4239999999998 526.272 28.5439999999998C511.6800000000001 33.7279999999997 499.0720000000001 40.8959999999997 488.5120000000001 50.1759999999997C477.888 59.4559999999997 469.6960000000001 70.5279999999997 463.744 83.5199999999998C457.728 96.5119999999999 454.784 110.848 454.784 126.528zM511.296 131.52C511.296 121.408 512.768 112.192 515.776 104C518.784 95.872 523.0079999999999 88.96 528.512 83.264C534.016 77.6320000000001 540.608 73.28 548.4159999999999 70.2720000000001S564.8 65.792 574.2719999999999 65.792C583.424 65.792 591.872 67.328 599.5519999999999 70.4C607.2319999999999 73.536 613.824 77.888 619.4559999999999 83.648C625.0239999999999 89.408 629.4399999999999 96.3200000000001 632.5759999999999 104.384C635.7119999999999 112.5120000000001 637.3119999999999 121.5360000000001 637.3119999999999 131.52C637.3119999999999 140.736 635.8399999999999 149.312 632.8319999999999 157.376C629.8239999999998 165.504 625.5999999999999 172.48 620.0959999999999 178.496S607.9999999999999 189.2479999999999 600.1919999999999 192.768S583.8079999999999 198.0160000000001 574.3359999999999 198.0160000000001C565.3119999999999 198.0160000000001 556.9919999999998 196.4160000000001 549.1839999999999 193.1520000000001S534.7839999999999 185.3440000000001 529.1519999999998 179.3920000000001C523.5839999999998 173.504 519.1679999999998 166.4640000000001 516.0319999999998 158.2720000000001C512.896 150.144 511.296 141.184 511.296 131.52zM523.52 293.504C523.52 286.016 524.864 279.04 527.552 272.64C530.24 266.24 533.8240000000001 260.608 538.304 255.872S548.096 247.424 554.1759999999999 244.736C560.256 242.112 566.7839999999999 240.704 573.824 240.704S587.328 242.048 593.472 244.8C599.552 247.5519999999999 604.864 251.328 609.472 256.064C614.0799999999999 260.8 617.664 266.432 620.352 272.832C623.04 279.2960000000001 624.384 286.144 624.384 293.44C624.384 300.928 623.104 307.968 620.48 314.4319999999999C617.856 320.9599999999999 614.336 326.5279999999999 609.856 331.2C605.376 335.872 600 339.584 593.856 342.208C587.648 344.9600000000001 580.928 346.24 573.824 346.24C566.3359999999999 346.24 559.4879999999999 344.896 553.3439999999999 342.144C547.1999999999999 339.3920000000001 541.8879999999999 335.616 537.472 330.752C533.0559999999999 325.952 529.6 320.32 527.232 313.856C524.736 307.52 523.52 300.6720000000001 523.52 293.504z M1029.504 282.496L944.2559999999997 153.024L1028.4799999999998 26.496H961.2159999999998L916.2239999999998 105.728C913.4079999999998 110.592 910.0799999999998 116.736 906.2399999999998 124.2239999999999H905.2159999999998C904.5759999999998 122.752 901.0559999999998 116.608 894.7199999999998 105.728L848.9599999999998 26.496H781.9519999999998L868.9279999999998 152L786.4319999999998 282.496H853.9519999999998L898.1759999999998 199.232C901.5039999999998 193.088 904.7679999999998 186.752 907.9039999999998 180.2239999999999H908.6719999999998L965.9519999999998 282.496H1029.504z" />
    <glyph glyph-name="fast-forward-16x"
      unicode="&#xE613;"
      horiz-adv-x="1024" d=" M512 704L256 512.1279999999999L256 896.128z M256 704L0 512L0 896z M378.304 393.024V26.496H320.32V321.9839999999999C309.824 314.4959999999999 298.496 308.0959999999999 286.464 302.848C274.368 297.5999999999999 260.608 292.992 245.12 288.9599999999999V338.4319999999999C254.784 341.632 264.128 344.9599999999999 273.152 348.416S291.008 355.8399999999999 299.776 360.1919999999999C308.544 364.5439999999999 317.3760000000001 369.4079999999999 326.272 374.7199999999999C335.168 380.0959999999999 344.384 386.176 353.92 392.9599999999999H378.304z M717.312 141.76C717.312 123.776 714.368 107.3919999999999 708.416 92.48C702.464 77.696 694.272 64.832 683.7760000000001 54.08S660.8000000000001 35.008 646.4000000000001 29.056C632.0000000000001 23.168 616.3840000000001 20.1600000000001 599.5520000000001 20.1600000000001C581.5680000000001 20.1600000000001 564.9920000000002 23.6800000000001 549.9520000000001 30.6560000000001C534.8480000000001 37.6320000000001 521.8560000000001 48.0640000000001 510.9760000000001 61.888C500.0320000000001 75.7760000000001 491.5840000000001 92.928 485.6320000000001 113.5360000000001C479.6160000000001 134.144 476.6080000000001 158.0160000000001 476.6080000000001 185.1520000000001C476.6080000000001 218.3680000000001 480.5760000000001 247.808 488.5120000000001 273.408C496.4480000000001 299.072 507.2640000000001 320.576 521.1520000000002 337.9200000000001C534.9760000000001 355.2640000000001 551.2320000000002 368.4480000000001 569.9200000000002 377.4080000000002C588.416 386.496 608.64 390.976 630.272 390.976C643.7760000000001 390.976 656.0640000000001 390.0800000000001 667.1360000000001 388.2240000000001C678.2080000000001 386.432 687.104 383.9360000000001 693.7600000000001 380.736V328.512C685.248 332.8639999999999 676.1600000000001 336.512 666.4960000000001 339.52C656.8320000000001 342.528 645.7600000000001 344 633.2160000000001 344C619.2000000000002 344 606.2720000000002 341.184 594.4960000000001 335.4880000000001C582.6560000000001 329.8560000000001 572.4800000000001 321.5360000000001 563.8400000000001 310.5920000000001C555.2640000000001 299.7120000000001 548.4800000000001 286.2080000000001 543.6160000000001 270.0800000000002C538.6880000000001 254.0160000000002 536.128 235.4560000000002 536.0000000000001 214.4640000000002H537.4720000000001C545.152 226.3680000000002 555.5200000000001 235.6480000000002 568.5760000000001 242.4960000000002C581.6320000000002 249.3440000000002 597.0560000000002 252.7360000000002 614.7200000000001 252.7360000000002C630.4000000000001 252.7360000000002 644.4800000000001 250.2400000000003 657.0880000000002 245.1200000000003C669.6960000000001 240.0640000000002 680.4480000000002 232.7680000000003 689.3440000000002 223.1040000000003C698.2400000000001 213.5680000000003 705.1520000000002 201.8560000000002 709.9520000000001 188.0960000000002C714.88 174.4 717.312 158.912 717.312 141.76zM658.752 137.024C658.752 147.3920000000001 657.536 156.8 655.1039999999999 165.2480000000001C652.6719999999999 173.76 649.0239999999999 181.0560000000001 644.0959999999999 187.1360000000001C639.1679999999999 193.2800000000001 633.0239999999999 197.9520000000001 625.5999999999999 201.2800000000001C618.1759999999999 204.6720000000002 609.4719999999999 206.2720000000001 599.4879999999999 206.2720000000001S580.6719999999999 204.5440000000001 573.1199999999999 200.8960000000001C565.5039999999999 197.3120000000001 559.1679999999999 192.6400000000001 553.9839999999999 186.7520000000001C548.8 180.9280000000001 544.9599999999999 174.2720000000001 542.3359999999999 166.72C539.7119999999999 159.232 538.4319999999999 151.616 538.4319999999999 143.744C538.4319999999999 135.232 539.6479999999999 126.528 542.0799999999999 117.6320000000001C544.512 108.7360000000001 548.2239999999999 100.6080000000001 553.2159999999999 93.2480000000001C558.2079999999999 85.952 564.608 79.8720000000001 572.3519999999999 75.1360000000001S589.3119999999999 68.032 599.9999999999999 68.032C609.4719999999999 68.032 617.9199999999998 69.76 625.2799999999999 73.2800000000001C632.6399999999999 76.8000000000001 638.7199999999999 81.6640000000001 643.6479999999999 87.8080000000001C648.5759999999999 94.0160000000001 652.2879999999999 101.3120000000001 654.9119999999999 109.6960000000001C657.472 118.0800000000001 658.752 127.168 658.752 137.024z M1029.504 282.496L944.2559999999997 153.024L1028.4799999999998 26.496H961.2159999999998L916.2239999999998 105.728C913.4079999999998 110.592 910.0799999999998 116.736 906.2399999999998 124.2239999999999H905.2159999999998C904.5759999999998 122.752 901.0559999999998 116.608 894.7199999999998 105.728L848.9599999999998 26.496H781.9519999999998L868.9279999999998 152L786.4319999999998 282.496H853.9519999999998L898.1759999999998 199.232C901.5039999999998 193.088 904.7679999999998 186.752 907.9039999999998 180.2239999999999H908.6719999999998L965.9519999999998 282.496H1029.504z" />
    <glyph glyph-name="fast-forward-32x"
      unicode="&#xE614;"
      horiz-adv-x="1024" d=" M512 704L256 512.1279999999999L256 896.128z M256 704L0 512L0 896z M199.04 39.744V94.2720000000001C222.4 75.7760000000001 248.704 66.4960000000001 278.016 66.4960000000001C301.824 66.4960000000001 320.896 71.9360000000002 335.168 82.7520000000001C349.44 93.6320000000001 356.544 108.2240000000001 356.544 126.7840000000001C356.544 167.4880000000001 325.44 187.7760000000001 263.296 187.7760000000001H235.52V234.24H262.016C317.1840000000001 234.24 344.7680000000001 253.4400000000001 344.7680000000001 291.712C344.7680000000001 327.1040000000001 323.264 344.704 280.2560000000001 344.704C256.2560000000001 344.704 233.6640000000001 336.128 212.48 318.976V370.496C236.8 384.192 265.536 390.976 298.752 390.976C330.56 390.976 356.096 382.976 375.2320000000001 366.976C394.3680000000001 350.976 403.968 330.496 403.968 305.472C403.968 258.368 379.968 227.968 331.968 214.464V213.44C357.824 210.944 378.24 201.92 393.216 186.304C408.256 170.816 415.808 151.36 415.808 128C415.808 95.872 403.712 69.888 379.584 50.112C355.392 30.336 323.584 20.48 284.096 20.48C248.512 20.48 220.16 26.944 199.04 39.744z M712.256 26.496H487.296V54.2719999999999C487.296 65.664 488.896 76.2879999999999 492.032 86.1439999999999C495.168 96.0639999999999 499.456 105.4079999999999 504.768 114.1759999999999C510.08 122.88 516.352 131.136 523.52 138.88C530.688 146.624 538.3679999999999 154.112 546.496 161.408C554.624 168.64 563.008 175.6800000000001 571.52 182.4S588.352 195.968 596.544 202.752C604.2239999999999 209.28 611.1999999999999 215.616 617.536 221.8879999999999C623.872 228.16 629.3119999999999 234.6239999999999 633.7919999999999 241.28C638.2719999999999 247.9359999999999 641.7919999999999 255.04 644.2879999999999 262.4C646.7839999999999 269.824 648.0639999999999 277.8879999999999 648.0639999999999 286.528C648.0639999999999 296 646.5919999999999 304.3200000000001 643.7119999999999 311.424C640.7679999999999 318.528 636.7359999999999 324.416 631.4879999999998 329.152S620.0319999999998 337.536 612.8639999999998 339.9039999999999C605.6959999999998 342.3359999999999 597.8879999999998 343.5519999999999 589.3759999999997 343.5519999999999C574.7199999999998 343.5519999999999 559.8079999999998 340.1599999999999 544.6399999999998 333.3119999999999C529.4719999999998 326.5279999999999 514.8799999999998 316.224 500.8639999999997 302.5919999999999V358.3359999999999C508.2239999999998 363.8399999999999 515.5839999999997 368.6399999999999 523.1359999999997 372.7359999999999C530.6239999999998 376.8319999999999 538.3679999999997 380.224 546.3679999999997 382.9759999999999S562.688 387.712 571.52 388.992C580.352 390.4 589.76 390.976 599.744 390.976C615.8720000000001 390.976 630.592 388.8640000000001 643.7760000000001 384.576C656.96 380.352 668.1600000000001 374.0800000000001 677.504 365.8240000000001C686.8480000000001 357.5680000000001 694.0160000000001 347.3280000000001 699.136 334.9760000000001C704.192 322.6880000000001 706.752 308.4800000000002 706.752 292.4800000000002C706.752 277.9520000000001 704.9599999999999 264.9600000000002 701.376 253.3760000000001C697.792 241.7920000000002 692.736 230.9760000000001 686.144 220.9920000000001C679.552 211.0080000000001 671.616 201.4720000000001 662.272 192.5120000000001C652.928 183.4880000000001 642.4960000000001 174.2720000000001 631.0400000000001 164.7360000000001C621.3760000000001 156.9280000000001 611.7120000000001 149.3120000000001 602.176 141.8880000000002C592.576 134.5280000000001 583.936 127.2320000000002 576.32 120.1280000000002C568.6400000000001 113.0880000000002 562.432 105.9840000000002 557.696 98.8800000000001C552.96 91.8400000000002 550.592 84.6720000000001 550.592 77.5040000000001V76.2240000000002H712.3199999999999V26.496z M1029.504 282.496L944.2559999999997 153.024L1028.4799999999998 26.496H961.2159999999998L916.2239999999998 105.728C913.4079999999998 110.592 910.0799999999998 116.736 906.2399999999998 124.2239999999999H905.2159999999998C904.5759999999998 122.752 901.0559999999998 116.608 894.7199999999998 105.728L848.9599999999998 26.496H781.9519999999998L868.9279999999998 152L786.4319999999998 282.496H853.9519999999998L898.1759999999998 199.232C901.5039999999998 193.088 904.7679999999998 186.752 907.9039999999998 180.2239999999999H908.6719999999998L965.9519999999998 282.496H1029.504z" />
    <glyph glyph-name="fast-forward-64x"
      unicode="&#xE615;"
      horiz-adv-x="1024" d=" M512 704L256 512.1279999999999L256 896.128z M256 704L0 512L0 896z M442.752 141.76C442.752 123.776 439.808 107.3919999999999 433.856 92.48C427.904 77.696 419.712 64.832 409.216 54.08S386.24 35.008 371.8400000000001 29.056C357.4400000000001 23.168 341.824 20.1600000000001 324.992 20.1600000000001C307.0080000000001 20.1600000000001 290.432 23.6800000000001 275.392 30.6560000000001C260.288 37.6320000000001 247.296 48.0640000000001 236.416 61.888C225.472 75.7760000000001 217.024 92.928 211.072 113.5360000000001C205.056 134.144 202.048 158.0160000000001 202.048 185.1520000000001C202.048 218.3680000000001 206.016 247.808 213.952 273.408C221.888 299.072 232.704 320.576 246.592 337.9200000000001C260.416 355.2640000000001 276.672 368.4480000000001 295.36 377.4080000000002C313.92 386.496 334.08 390.976 355.776 390.976C369.2800000000001 390.976 381.568 390.0800000000001 392.64 388.2240000000001C403.712 386.432 412.608 383.9360000000001 419.264 380.736V328.512C410.752 332.8639999999999 401.664 336.512 392 339.52C382.336 342.528 371.264 344 358.7200000000001 344C344.704 344 331.776 341.184 320 335.4880000000001C308.1600000000001 329.8560000000001 297.984 321.5360000000001 289.344 310.5920000000001C280.768 299.7120000000001 273.984 286.2080000000001 269.12 270.0800000000002C264.192 254.0160000000002 261.632 235.4560000000002 261.504 214.4640000000002H263.04C270.7200000000001 226.3680000000002 281.088 235.6480000000002 294.144 242.4960000000002C307.2 249.3440000000002 322.624 252.7360000000002 340.288 252.7360000000002C355.968 252.7360000000002 370.048 250.2400000000003 382.656 245.1200000000003C395.264 240.0640000000002 406.016 232.7680000000003 414.9120000000001 223.1040000000003C423.8080000000001 213.5680000000003 430.7200000000001 201.8560000000002 435.5200000000001 188.0960000000002C440.32 174.4 442.752 158.912 442.752 141.76zM384.256 137.024C384.256 147.3920000000001 383.04 156.8 380.608 165.2480000000001C378.176 173.76 374.528 181.0560000000001 369.6 187.1360000000001C364.672 193.2800000000001 358.528 197.9520000000001 351.104 201.2800000000001C343.68 204.6720000000002 334.976 206.2720000000001 324.992 206.2720000000001S306.176 204.5440000000001 298.624 200.8960000000001C291.008 197.3120000000001 284.672 192.6400000000001 279.488 186.7520000000001C274.3039999999999 180.9280000000001 270.464 174.2720000000001 267.8399999999999 166.72C265.2159999999999 159.232 263.9359999999999 151.616 263.9359999999999 143.744C263.9359999999999 135.232 265.152 126.528 267.584 117.6320000000001C270.016 108.7360000000001 273.728 100.6080000000001 278.72 93.2480000000001C283.712 85.952 290.112 79.8720000000001 297.856 75.1360000000001S314.816 68.032 325.504 68.032C334.976 68.032 343.4240000000001 69.76 350.784 73.2800000000001C358.144 76.8000000000001 364.224 81.6640000000001 369.152 87.8080000000001C374.08 94.0160000000001 377.792 101.3120000000001 380.416 109.6960000000001C382.976 118.0800000000001 384.256 127.168 384.256 137.024z M693.76 385.024V153.5360000000001H747.008V105.2800000000001H693.76V26.5600000000001H637.504V105.2800000000001H475.264V154.0480000000001C489.92 170.5600000000002 504.96 188.4160000000002 520.384 207.6800000000001C535.808 226.9440000000001 550.6560000000001 246.5920000000001 564.864 266.6880000000001C579.1360000000001 286.7840000000001 592.32 306.9440000000001 604.48 327.0400000000001C616.64 347.2000000000001 626.88 366.528 635.2 385.0240000000001H693.76zM637.504 153.472V304C619.328 271.36 601.408 242.88 583.616 218.496C565.888 194.1759999999999 549.2479999999999 172.48 533.76 153.472H637.504z M1029.504 282.496L944.2559999999997 153.024L1028.4799999999998 26.496H961.28L916.288 105.728C913.472 110.592 910.144 116.736 906.304 124.2239999999999H905.28C904.64 122.752 901.12 116.608 894.784 105.728L849.024 26.496H782.016L868.992 152L786.496 282.496H854.016L898.24 199.232C901.568 193.088 904.832 186.752 907.968 180.2239999999999H908.736L966.016 282.496H1029.504z" />
    <glyph glyph-name="fast-forward-128x"
      unicode="&#xE616;"
      horiz-adv-x="1024" d=" M512 704L256 512.1279999999999L256 896.128z M256 704L0 512L0 896z M197.952 393.024V26.496H139.968V321.9839999999999C129.472 314.4959999999999 118.144 308.0959999999999 106.112 302.848C94.016 297.5999999999999 80.256 292.992 64.768 288.9599999999999V338.4319999999999C74.432 341.632 83.776 344.9599999999999 92.8 348.416S110.656 355.8399999999999 119.424 360.1919999999999C128.192 364.5439999999999 137.024 369.4079999999999 145.92 374.7199999999999C154.816 380.0959999999999 164.032 386.176 173.568 392.9599999999999H197.952z M458.752 26.496H233.728V54.2719999999999C233.728 65.664 235.328 76.2879999999999 238.464 86.1439999999999C241.6 96.0639999999999 245.888 105.4079999999999 251.2 114.1759999999999C256.512 122.944 262.784 131.1999999999999 269.952 138.944C277.12 146.688 284.8 154.1759999999999 292.928 161.472C301.056 168.704 309.44 175.744 317.952 182.464S334.784 196.0319999999999 342.976 202.8159999999999C350.656 209.3439999999999 357.632 215.68 363.968 221.9519999999999C370.3040000000001 228.224 375.7440000000001 234.6879999999999 380.2240000000001 241.344C384.7040000000001 247.9999999999999 388.2240000000001 255.104 390.7200000000001 262.464C393.216 269.8879999999999 394.4960000000001 277.952 394.4960000000001 286.592C394.4960000000001 296.064 393.0240000000001 304.384 390.1440000000001 311.488C387.2000000000001 318.592 383.1680000000001 324.4799999999999 377.9200000000001 329.2159999999999S366.4640000000001 337.5999999999999 359.2960000000001 339.9679999999999C352.1280000000001 342.3999999999999 344.3200000000001 343.6159999999999 335.8080000000001 343.6159999999999C321.1520000000001 343.6159999999999 306.2400000000001 340.2239999999998 291.0720000000001 333.3759999999999C275.9040000000001 326.5919999999999 261.3120000000001 316.2879999999999 247.2960000000001 302.6559999999999V358.3999999999999C254.6560000000001 363.9039999999999 262.0160000000001 368.7039999999999 269.5680000000001 372.7999999999999C277.0560000000001 376.8959999999999 284.8000000000001 380.2879999999999 292.8000000000001 383.0399999999999S309.1840000000001 387.8399999999998 318.0800000000001 389.1839999999999C326.848 390.4 336.256 390.976 346.24 390.976C362.368 390.976 377.088 388.8640000000001 390.272 384.576C403.456 380.352 414.656 374.0800000000001 424 365.8240000000001C433.344 357.5680000000001 440.512 347.3280000000001 445.632 334.9760000000001C450.688 322.6880000000001 453.248 308.4800000000002 453.248 292.4800000000002C453.248 277.9520000000001 451.456 264.9600000000002 447.872 253.3760000000001C444.288 241.7920000000002 439.2320000000001 230.9760000000001 432.64 220.9920000000001C426.048 211.0080000000001 418.112 201.4720000000001 408.768 192.5120000000001C399.424 183.4880000000001 388.992 174.2720000000001 377.536 164.7360000000001C367.872 156.9280000000001 358.208 149.3120000000001 348.672 141.8880000000002C339.072 134.5280000000001 330.432 127.2320000000002 322.816 120.1280000000002C315.136 113.0880000000002 308.928 105.9840000000002 304.192 98.8800000000001C299.456 91.8400000000002 297.088 84.6720000000001 297.088 77.5040000000001V76.2240000000002H458.816V26.496z M516.224 126.528C516.224 136.8960000000001 517.504 146.88 520.128 156.544C522.688 166.208 526.5920000000001 175.168 531.7760000000001 183.2959999999999C536.96 191.488 543.4240000000001 198.7839999999999 551.296 205.3119999999999C559.104 211.8399999999999 568.32 217.0879999999999 578.816 221.0559999999999C563.328 229.7599999999999 550.976 240.896 541.8240000000001 254.4C532.608 267.968 528 283.0080000000001 528 299.52C528 312.704 530.688 324.8640000000001 536.128 336C541.504 347.2000000000001 549.056 356.8640000000001 558.6560000000001 364.992C568.2560000000001 373.184 579.5200000000001 379.584 592.5120000000001 384.128C605.504 388.7359999999999 619.648 390.9759999999999 635.008 390.9759999999999C650.4960000000001 390.9759999999999 664.768 388.6719999999999 677.888 383.9999999999999C690.9440000000001 379.392 702.272 372.9279999999999 711.8720000000001 364.7359999999999C721.4720000000001 356.6079999999999 728.8960000000001 346.9439999999999 734.272 335.7439999999999C739.5840000000001 324.608 742.272 312.512 742.272 299.5199999999999C742.272 283.0079999999998 737.6640000000001 268.032 728.5120000000001 254.3999999999999C719.36 240.8319999999999 707.2 229.6959999999999 692.032 221.0559999999998C702.336 217.0239999999998 711.488 211.8399999999998 719.4240000000001 205.4399999999998C727.3600000000001 199.0399999999999 733.9520000000001 191.7439999999998 739.3280000000001 183.5519999999998C744.6400000000001 175.4239999999998 748.6720000000001 166.4639999999998 751.3600000000001 156.7999999999999C754.0480000000001 147.1999999999998 755.3920000000002 137.0239999999999 755.3920000000002 126.5279999999998C755.3920000000002 110.9119999999998 752.4480000000002 96.5119999999998 746.6240000000001 83.5199999999998C740.8000000000002 70.5279999999998 732.6080000000002 59.3919999999997 722.1120000000001 50.1759999999997S699.008 33.7279999999997 684.3520000000001 28.5439999999998C669.6960000000001 23.4239999999998 653.5040000000001 20.7999999999997 635.8400000000001 20.7999999999997C618.3680000000002 20.7999999999997 602.3040000000001 23.4239999999998 587.7120000000001 28.5439999999998C573.1200000000001 33.7279999999997 560.5120000000001 40.8959999999997 549.9520000000001 50.1759999999997C539.3280000000001 59.4559999999997 531.1360000000001 70.5279999999997 525.1840000000001 83.5199999999998C519.232 96.5119999999999 516.224 110.848 516.224 126.528zM572.736 131.52C572.736 121.408 574.208 112.192 577.216 104C580.224 95.872 584.448 88.96 589.952 83.264C595.456 77.6320000000001 602.048 73.28 609.856 70.2720000000001S626.24 65.792 635.712 65.792C644.864 65.792 653.312 67.328 660.992 70.4C668.6719999999999 73.536 675.264 77.888 680.896 83.648C686.4639999999999 89.408 690.88 96.3200000000001 694.016 104.384C697.1519999999999 112.5120000000001 698.752 121.5360000000001 698.752 131.52C698.752 140.736 697.28 149.312 694.2719999999999 157.376C691.2639999999999 165.504 687.04 172.48 681.536 178.496S669.4399999999999 189.2479999999999 661.632 192.768S645.2479999999999 198.0160000000001 635.776 198.0160000000001C626.752 198.0160000000001 618.4319999999999 196.4160000000001 610.6239999999999 193.1520000000001S596.2239999999999 185.3440000000001 590.5919999999999 179.3920000000001C585.0239999999999 173.504 580.6079999999998 166.4640000000001 577.4719999999999 158.2720000000001C574.336 150.144 572.736 141.184 572.736 131.52zM585.024 293.504C585.024 286.016 586.368 279.04 589.056 272.64C591.744 266.24 595.3280000000001 260.608 599.808 255.872S609.6 247.424 615.68 244.736C621.76 242.112 628.2879999999999 240.704 635.328 240.704S648.832 242.048 654.976 244.8C661.056 247.5519999999999 666.368 251.328 670.976 256.064C675.584 260.8 679.168 266.432 681.856 272.832C684.544 279.2960000000001 685.888 286.144 685.888 293.44C685.888 300.928 684.6080000000001 307.968 681.984 314.4319999999999C679.36 320.9599999999999 675.84 326.5279999999999 671.36 331.2C666.88 335.872 661.504 339.584 655.36 342.208C649.216 344.896 642.496 346.24 635.328 346.24C627.8399999999999 346.24 620.992 344.896 614.848 342.144C608.704 339.3920000000001 603.3919999999999 335.616 598.976 330.752C594.56 325.952 591.104 320.32 588.736 313.856C586.176 307.52 585.024 300.6720000000001 585.024 293.504z M1029.504 282.496L944.2559999999997 153.024L1028.4799999999998 26.496H961.28L916.288 105.728C913.472 110.592 910.144 116.736 906.304 124.2239999999999H905.28C904.64 122.752 901.12 116.608 894.784 105.728L849.024 26.496H782.016L868.992 152L786.496 282.496H854.016L898.24 199.232C901.568 193.088 904.832 186.752 907.968 180.2239999999999H908.736L966.016 282.496H1029.504z" />
    <glyph glyph-name="frame-skip-backward"
      unicode="&#xE617;"
      horiz-adv-x="1024" d=" M147.2 513.28L505.6 256L505.6 768z M576 768H640V256H576V768z M704 768H768V256H704V768z" />
    <glyph glyph-name="frame-skip-forward"
      unicode="&#xE618;"
      horiz-adv-x="1024" d=" M876.8 513.6L518.4 256.3200000000001L518.4 768.3199999999999z M384 768.3199999999999H448V256.32H384V768.3199999999999z M256 768.3199999999999H320V256.32H256V768.3199999999999z" />
    <glyph glyph-name="next-track"
      unicode="&#xE619;"
      horiz-adv-x="1024" d=" M812.8 513.28L454.4 256L454.4 768z M428.8 513.28L70.4 256L70.4 768z M832 768H960V256H832V768z" />
    <glyph glyph-name="skip-forward"
      unicode="&#xE61A;"
      horiz-adv-x="1024" d=" M512 768L512 645.184L697.6 513.28L512 380.0320000000001L512 256L870.4 513.28z M128 768L128 645.184L313.6 513.28L128 380.0320000000001L128 256L486.4 513.28z" />
    <glyph glyph-name="skip-backward"
      unicode="&#xE61B;"
      horiz-adv-x="1024" d=" M512 768L512 645.184L326.4 513.28L512 380.0320000000001L512 256L153.6 513.28z M896 768L896 645.184L710.4 513.28L896 380.0320000000001L896 256L537.6 513.28z" />
    <glyph glyph-name="previous-track"
      unicode="&#xE61C;"
      horiz-adv-x="1024" d=" M211.2 513.28L569.6 256L569.6 768z M595.2 513.28L953.6 256L953.6 768z M64 768H192V256H64V768z" />
    <glyph glyph-name="rewind"
      unicode="&#xE61D;"
      horiz-adv-x="1024" d=" M147.2 513.28L505.6 256L505.6 768z M531.2 513.28L889.6 256L889.6 768z" />
    <glyph glyph-name="rewind-2x"
      unicode="&#xE61E;"
      horiz-adv-x="1024" d=" M0 704L256 512L256 896z M256 704L512 512L512 896.128z M702.016 26.496H477.056V54.2719999999999C477.056 65.664 478.656 76.2879999999999 481.792 86.1439999999999C484.928 96.0639999999999 489.216 105.4079999999999 494.528 114.1759999999999C499.84 122.88 506.112 131.136 513.28 138.88C520.448 146.624 528.1279999999999 154.112 536.256 161.408C544.384 168.64 552.768 175.6800000000001 561.28 182.4S578.112 195.968 586.304 202.752C593.9839999999999 209.28 600.9599999999999 215.616 607.2959999999999 221.8879999999999C613.632 228.16 619.0719999999999 234.6239999999999 623.5519999999999 241.28C628.0319999999999 247.9359999999999 631.5519999999999 255.04 634.0479999999999 262.4C636.5439999999999 269.824 637.8239999999998 277.8879999999999 637.8239999999998 286.528C637.8239999999998 296 636.3519999999999 304.3200000000001 633.4719999999999 311.424C630.5279999999999 318.528 626.4959999999999 324.416 621.2479999999998 329.152S609.7919999999998 337.536 602.6239999999998 339.9039999999999C595.4559999999998 342.3359999999999 587.6479999999998 343.5519999999999 579.1359999999997 343.5519999999999C564.4799999999998 343.5519999999999 549.5679999999998 340.1599999999999 534.3999999999997 333.3119999999999C519.2319999999997 326.5279999999999 504.6399999999998 316.224 490.6239999999997 302.5919999999999V358.3359999999999C497.9839999999998 363.8399999999999 505.3439999999998 368.6399999999999 512.8959999999997 372.7359999999999C520.3839999999998 376.8319999999999 528.1279999999997 380.224 536.1279999999997 382.9759999999999S552.448 387.712 561.28 388.992C570.112 390.4 579.52 390.976 589.504 390.976C605.6320000000001 390.976 620.352 388.8640000000001 633.5360000000001 384.576C646.72 380.352 657.9200000000001 374.0800000000001 667.264 365.8240000000001C676.6080000000001 357.5680000000001 683.7760000000001 347.3280000000001 688.896 334.9760000000001C693.952 322.6880000000001 696.512 308.4800000000002 696.512 292.4800000000002C696.512 277.9520000000001 694.7199999999999 264.9600000000002 691.136 253.3760000000001C687.552 241.7920000000002 682.496 230.9760000000001 675.904 220.9920000000001C669.312 211.0080000000001 661.376 201.4720000000001 652.032 192.5120000000001C642.688 183.4880000000001 632.2560000000001 174.2720000000001 620.8000000000001 164.7360000000001C611.1360000000001 156.9280000000001 601.4720000000001 149.3120000000001 591.936 141.8880000000002C582.336 134.5280000000001 573.696 127.2320000000002 566.08 120.1280000000002C558.4000000000001 113.0880000000002 552.192 105.9840000000002 547.456 98.8800000000001C542.72 91.8400000000002 540.352 84.6720000000001 540.352 77.5040000000001V76.2240000000002H702.0799999999999V26.496z M1029.504 282.496L944.2559999999997 153.024L1028.4799999999998 26.496H961.2159999999998L916.2239999999998 105.728C913.4079999999998 110.592 910.0799999999998 116.736 906.2399999999998 124.2239999999999H905.2159999999998C904.5759999999998 122.752 901.0559999999998 116.608 894.7199999999998 105.728L848.9599999999998 26.496H781.9519999999998L868.9279999999998 152L786.4319999999998 282.496H853.9519999999998L898.1759999999998 199.232C901.5039999999998 193.088 904.7679999999998 186.752 907.9039999999998 180.2239999999999H908.6719999999998L965.9519999999998 282.496H1029.504z" />
    <glyph glyph-name="rewind-4x"
      unicode="&#xE61F;"
      horiz-adv-x="1024" d=" M0 704L256 512L256 896z M256 704L512 512L511.104 901.12z M693.76 385.024V153.5360000000001H747.008V105.2800000000001H693.76V26.5600000000001H637.504V105.2800000000001H475.264V154.0480000000001C489.92 170.5600000000002 504.96 188.4160000000002 520.384 207.6800000000001C535.808 226.9440000000001 550.6560000000001 246.5920000000001 564.864 266.6880000000001C579.1360000000001 286.7840000000001 592.32 306.9440000000001 604.48 327.0400000000001C616.64 347.2000000000001 626.88 366.528 635.2 385.0240000000001H693.76zM637.504 153.472V304C619.328 271.36 601.408 242.88 583.616 218.496C565.888 194.1759999999999 549.2479999999999 172.48 533.76 153.472H637.504z M1029.504 282.496L944.2559999999997 153.024L1028.4799999999998 26.496H961.28L916.288 105.728C913.472 110.592 910.144 116.736 906.304 124.2239999999999H905.28C904.64 122.752 901.12 116.608 894.784 105.728L849.024 26.496H782.016L868.992 152L786.496 282.496H854.016L898.24 199.232C901.568 193.088 904.832 186.752 907.968 180.2239999999999H908.736L966.016 282.496H1029.504z" />
    <glyph glyph-name="rewind-8x"
      unicode="&#xE620;"
      horiz-adv-x="1024" d=" M0 704L256 512L256 896z M256 704L512 512L512 896z M454.784 126.528C454.784 136.8960000000001 456.064 146.88 458.688 156.544C461.248 166.208 465.152 175.168 470.336 183.2959999999999C475.52 191.488 481.984 198.7839999999999 489.856 205.3119999999999C497.664 211.8399999999999 506.88 217.0879999999999 517.376 221.0559999999999C501.888 229.7599999999999 489.536 240.896 480.384 254.4C471.104 267.968 466.56 283.0080000000001 466.56 299.52C466.56 312.704 469.248 324.8640000000001 474.688 336C480.064 347.2000000000001 487.616 356.8640000000001 497.216 364.992C506.816 373.184 518.08 379.584 531.072 384.128C544.064 388.7359999999999 558.208 390.9759999999999 573.568 390.9759999999999C589.056 390.9759999999999 603.328 388.6719999999999 616.448 383.9999999999999C629.504 379.392 640.832 372.9279999999999 650.432 364.7359999999999C660.032 356.6079999999999 667.456 346.9439999999999 672.832 335.7439999999999C678.144 324.608 680.832 312.512 680.832 299.5199999999999C680.832 283.0079999999998 676.224 268.032 667.072 254.3999999999999C657.92 240.8319999999999 645.76 229.6959999999999 630.592 221.0559999999998C640.896 217.0239999999998 650.048 211.8399999999998 657.984 205.4399999999998C665.9200000000001 199.0399999999999 672.5120000000001 191.7439999999998 677.888 183.5519999999998C683.2 175.4239999999998 687.2320000000001 166.4639999999998 689.9200000000001 156.7999999999999C692.6080000000001 147.1999999999998 693.9520000000001 137.0239999999999 693.9520000000001 126.5279999999998C693.9520000000001 110.9119999999998 691.0080000000002 96.5119999999998 685.1840000000001 83.5199999999998C679.3600000000001 70.5279999999998 671.1680000000001 59.3919999999997 660.672 50.1759999999997S637.568 33.7279999999997 622.912 28.5439999999998C608.2560000000001 23.4239999999998 592.0640000000001 20.7999999999997 574.4000000000001 20.7999999999997C556.9280000000001 20.7999999999997 540.864 23.4239999999998 526.272 28.5439999999998C511.6800000000001 33.7279999999997 499.0720000000001 40.8959999999997 488.5120000000001 50.1759999999997C477.888 59.4559999999997 469.6960000000001 70.5279999999997 463.744 83.5199999999998C457.728 96.5119999999999 454.784 110.848 454.784 126.528zM511.296 131.52C511.296 121.408 512.768 112.192 515.776 104C518.784 95.872 523.0079999999999 88.96 528.512 83.264C534.016 77.6320000000001 540.608 73.28 548.4159999999999 70.2720000000001S564.8 65.792 574.2719999999999 65.792C583.424 65.792 591.872 67.328 599.5519999999999 70.4C607.2319999999999 73.536 613.824 77.888 619.4559999999999 83.648C625.0239999999999 89.408 629.4399999999999 96.3200000000001 632.5759999999999 104.384C635.7119999999999 112.5120000000001 637.3119999999999 121.5360000000001 637.3119999999999 131.52C637.3119999999999 140.736 635.8399999999999 149.312 632.8319999999999 157.376C629.8239999999998 165.504 625.5999999999999 172.48 620.0959999999999 178.496S607.9999999999999 189.2479999999999 600.1919999999999 192.768S583.8079999999999 198.0160000000001 574.3359999999999 198.0160000000001C565.3119999999999 198.0160000000001 556.9919999999998 196.4160000000001 549.1839999999999 193.1520000000001S534.7839999999999 185.3440000000001 529.1519999999998 179.3920000000001C523.5839999999998 173.504 519.1679999999998 166.4640000000001 516.0319999999998 158.2720000000001C512.896 150.144 511.296 141.184 511.296 131.52zM523.52 293.504C523.52 286.016 524.864 279.04 527.552 272.64C530.24 266.24 533.8240000000001 260.608 538.304 255.872S548.096 247.424 554.1759999999999 244.736C560.256 242.112 566.7839999999999 240.704 573.824 240.704S587.328 242.048 593.472 244.8C599.552 247.5519999999999 604.864 251.328 609.472 256.064C614.0799999999999 260.8 617.664 266.432 620.352 272.832C623.04 279.2960000000001 624.384 286.144 624.384 293.44C624.384 300.928 623.104 307.968 620.48 314.4319999999999C617.856 320.9599999999999 614.336 326.5279999999999 609.856 331.2C605.376 335.872 600 339.584 593.856 342.208C587.648 344.9600000000001 580.928 346.24 573.824 346.24C566.3359999999999 346.24 559.4879999999999 344.896 553.3439999999999 342.144C547.1999999999999 339.3920000000001 541.8879999999999 335.616 537.472 330.752C533.0559999999999 325.952 529.6 320.32 527.232 313.856C524.736 307.52 523.52 300.6720000000001 523.52 293.504z M1029.504 282.496L944.2559999999997 153.024L1028.4799999999998 26.496H961.2159999999998L916.2239999999998 105.728C913.4079999999998 110.592 910.0799999999998 116.736 906.2399999999998 124.2239999999999H905.2159999999998C904.5759999999998 122.752 901.0559999999998 116.608 894.7199999999998 105.728L848.9599999999998 26.496H781.9519999999998L868.9279999999998 152L786.4319999999998 282.496H853.9519999999998L898.1759999999998 199.232C901.5039999999998 193.088 904.7679999999998 186.752 907.9039999999998 180.2239999999999H908.6719999999998L965.9519999999998 282.496H1029.504z" />
    <glyph glyph-name="rewind-16x"
      unicode="&#xE621;"
      horiz-adv-x="1024" d=" M0 704L256 512L256 896z M256 704L512 512L512 896z M378.304 393.024V26.496H320.32V321.9839999999999C309.824 314.4959999999999 298.496 308.0959999999999 286.464 302.848C274.368 297.5999999999999 260.608 292.992 245.12 288.9599999999999V338.4319999999999C254.784 341.632 264.128 344.9599999999999 273.152 348.416S291.008 355.8399999999999 299.776 360.1919999999999C308.544 364.5439999999999 317.3760000000001 369.4079999999999 326.272 374.7199999999999C335.168 380.0959999999999 344.384 386.176 353.92 392.9599999999999H378.304z M717.312 141.76C717.312 123.776 714.368 107.3919999999999 708.416 92.48C702.464 77.696 694.272 64.832 683.7760000000001 54.08S660.8000000000001 35.008 646.4000000000001 29.056C632.0000000000001 23.168 616.3840000000001 20.1600000000001 599.5520000000001 20.1600000000001C581.5680000000001 20.1600000000001 564.9920000000002 23.6800000000001 549.9520000000001 30.6560000000001C534.8480000000001 37.6320000000001 521.8560000000001 48.0640000000001 510.9760000000001 61.888C500.0320000000001 75.7760000000001 491.5840000000001 92.928 485.6320000000001 113.5360000000001C479.6160000000001 134.144 476.6080000000001 158.0160000000001 476.6080000000001 185.1520000000001C476.6080000000001 218.3680000000001 480.5760000000001 247.808 488.5120000000001 273.408C496.4480000000001 299.072 507.2640000000001 320.576 521.1520000000002 337.9200000000001C534.9760000000001 355.2640000000001 551.2320000000002 368.4480000000001 569.9200000000002 377.4080000000002C588.416 386.496 608.64 390.976 630.272 390.976C643.7760000000001 390.976 656.0640000000001 390.0800000000001 667.1360000000001 388.2240000000001C678.2080000000001 386.432 687.104 383.9360000000001 693.7600000000001 380.736V328.512C685.248 332.8639999999999 676.1600000000001 336.512 666.4960000000001 339.52C656.8320000000001 342.528 645.7600000000001 344 633.2160000000001 344C619.2000000000002 344 606.2720000000002 341.184 594.4960000000001 335.4880000000001C582.6560000000001 329.8560000000001 572.4800000000001 321.5360000000001 563.8400000000001 310.5920000000001C555.2640000000001 299.7120000000001 548.4800000000001 286.2080000000001 543.6160000000001 270.0800000000002C538.6880000000001 254.0160000000002 536.128 235.4560000000002 536.0000000000001 214.4640000000002H537.4720000000001C545.152 226.3680000000002 555.5200000000001 235.6480000000002 568.5760000000001 242.4960000000002C581.6320000000002 249.3440000000002 597.0560000000002 252.7360000000002 614.7200000000001 252.7360000000002C630.4000000000001 252.7360000000002 644.4800000000001 250.2400000000003 657.0880000000002 245.1200000000003C669.6960000000001 240.0640000000002 680.4480000000002 232.7680000000003 689.3440000000002 223.1040000000003C698.2400000000001 213.5680000000003 705.1520000000002 201.8560000000002 709.9520000000001 188.0960000000002C714.88 174.4 717.312 158.912 717.312 141.76zM658.752 137.024C658.752 147.3920000000001 657.536 156.8 655.1039999999999 165.2480000000001C652.6719999999999 173.76 649.0239999999999 181.0560000000001 644.0959999999999 187.1360000000001C639.1679999999999 193.2800000000001 633.0239999999999 197.9520000000001 625.5999999999999 201.2800000000001C618.1759999999999 204.6720000000002 609.4719999999999 206.2720000000001 599.4879999999999 206.2720000000001S580.6719999999999 204.5440000000001 573.1199999999999 200.8960000000001C565.5039999999999 197.3120000000001 559.1679999999999 192.6400000000001 553.9839999999999 186.7520000000001C548.8 180.9280000000001 544.9599999999999 174.2720000000001 542.3359999999999 166.72C539.7119999999999 159.232 538.4319999999999 151.616 538.4319999999999 143.744C538.4319999999999 135.232 539.6479999999999 126.528 542.0799999999999 117.6320000000001C544.512 108.7360000000001 548.2239999999999 100.6080000000001 553.2159999999999 93.2480000000001C558.2079999999999 85.952 564.608 79.8720000000001 572.3519999999999 75.1360000000001S589.3119999999999 68.032 599.9999999999999 68.032C609.4719999999999 68.032 617.9199999999998 69.76 625.2799999999999 73.2800000000001C632.6399999999999 76.8000000000001 638.7199999999999 81.6640000000001 643.6479999999999 87.8080000000001C648.5759999999999 94.0160000000001 652.2879999999999 101.3120000000001 654.9119999999999 109.6960000000001C657.472 118.0800000000001 658.752 127.168 658.752 137.024z M1029.504 282.496L944.2559999999997 153.024L1028.4799999999998 26.496H961.2159999999998L916.2239999999998 105.728C913.4079999999998 110.592 910.0799999999998 116.736 906.2399999999998 124.2239999999999H905.2159999999998C904.5759999999998 122.752 901.0559999999998 116.608 894.7199999999998 105.728L848.9599999999998 26.496H781.9519999999998L868.9279999999998 152L786.4319999999998 282.496H853.9519999999998L898.1759999999998 199.232C901.5039999999998 193.088 904.7679999999998 186.752 907.9039999999998 180.2239999999999H908.6719999999998L965.9519999999998 282.496H1029.504z" />
    <glyph glyph-name="rewind-32x"
      unicode="&#xE622;"
      horiz-adv-x="1024" d=" M0 704L256 512L256 896z M256 704L512 512L512 896z M199.04 39.744V94.2720000000001C222.4 75.7760000000001 248.704 66.4960000000001 278.016 66.4960000000001C301.824 66.4960000000001 320.896 71.9360000000002 335.168 82.7520000000001C349.44 93.6320000000001 356.544 108.2240000000001 356.544 126.7840000000001C356.544 167.4880000000001 325.44 187.7760000000001 263.296 187.7760000000001H235.52V234.24H262.016C317.1840000000001 234.24 344.7680000000001 253.4400000000001 344.7680000000001 291.712C344.7680000000001 327.1040000000001 323.264 344.704 280.2560000000001 344.704C256.2560000000001 344.704 233.6640000000001 336.128 212.48 318.976V370.496C236.8 384.192 265.536 390.976 298.752 390.976C330.56 390.976 356.096 382.976 375.2320000000001 366.976C394.3680000000001 350.976 403.968 330.496 403.968 305.472C403.968 258.368 379.968 227.968 331.968 214.464V213.44C357.824 210.944 378.24 201.92 393.216 186.304C408.256 170.816 415.808 151.36 415.808 128C415.808 95.872 403.712 69.888 379.584 50.112C355.392 30.336 323.584 20.48 284.096 20.48C248.512 20.48 220.16 26.944 199.04 39.744z M712.256 26.496H487.296V54.2719999999999C487.296 65.664 488.896 76.2879999999999 492.032 86.1439999999999C495.168 96.0639999999999 499.456 105.4079999999999 504.768 114.1759999999999C510.08 122.88 516.352 131.136 523.52 138.88C530.688 146.624 538.3679999999999 154.112 546.496 161.408C554.624 168.64 563.008 175.6800000000001 571.52 182.4S588.352 195.968 596.544 202.752C604.2239999999999 209.28 611.1999999999999 215.616 617.536 221.8879999999999C623.872 228.16 629.3119999999999 234.6239999999999 633.7919999999999 241.28C638.2719999999999 247.9359999999999 641.7919999999999 255.04 644.2879999999999 262.4C646.7839999999999 269.824 648.0639999999999 277.8879999999999 648.0639999999999 286.528C648.0639999999999 296 646.5919999999999 304.3200000000001 643.7119999999999 311.424C640.7679999999999 318.528 636.7359999999999 324.416 631.4879999999998 329.152S620.0319999999998 337.536 612.8639999999998 339.9039999999999C605.6959999999998 342.3359999999999 597.8879999999998 343.5519999999999 589.3759999999997 343.5519999999999C574.7199999999998 343.5519999999999 559.8079999999998 340.1599999999999 544.6399999999998 333.3119999999999C529.4719999999998 326.5279999999999 514.8799999999998 316.224 500.8639999999997 302.5919999999999V358.3359999999999C508.2239999999998 363.8399999999999 515.5839999999997 368.6399999999999 523.1359999999997 372.7359999999999C530.6239999999998 376.8319999999999 538.3679999999997 380.224 546.3679999999997 382.9759999999999S562.688 387.712 571.52 388.992C580.352 390.4 589.76 390.976 599.744 390.976C615.8720000000001 390.976 630.592 388.8640000000001 643.7760000000001 384.576C656.96 380.352 668.1600000000001 374.0800000000001 677.504 365.8240000000001C686.8480000000001 357.5680000000001 694.0160000000001 347.3280000000001 699.136 334.9760000000001C704.192 322.6880000000001 706.752 308.4800000000002 706.752 292.4800000000002C706.752 277.9520000000001 704.9599999999999 264.9600000000002 701.376 253.3760000000001C697.792 241.7920000000002 692.736 230.9760000000001 686.144 220.9920000000001C679.552 211.0080000000001 671.616 201.4720000000001 662.272 192.5120000000001C652.928 183.4880000000001 642.4960000000001 174.2720000000001 631.0400000000001 164.7360000000001C621.3760000000001 156.9280000000001 611.7120000000001 149.3120000000001 602.176 141.8880000000002C592.576 134.5280000000001 583.936 127.2320000000002 576.32 120.1280000000002C568.6400000000001 113.0880000000002 562.432 105.9840000000002 557.696 98.8800000000001C552.96 91.8400000000002 550.592 84.6720000000001 550.592 77.5040000000001V76.2240000000002H712.3199999999999V26.496z M1029.504 282.496L944.2559999999997 153.024L1028.4799999999998 26.496H961.2159999999998L916.2239999999998 105.728C913.4079999999998 110.592 910.0799999999998 116.736 906.2399999999998 124.2239999999999H905.2159999999998C904.5759999999998 122.752 901.0559999999998 116.608 894.7199999999998 105.728L848.9599999999998 26.496H781.9519999999998L868.9279999999998 152L786.4319999999998 282.496H853.9519999999998L898.1759999999998 199.232C901.5039999999998 193.088 904.7679999999998 186.752 907.9039999999998 180.2239999999999H908.6719999999998L965.9519999999998 282.496H1029.504z" />
    <glyph glyph-name="rewind-64x"
      unicode="&#xE623;"
      horiz-adv-x="1024" d=" M0 704L256 512L256 896z M256 704L512 512L512 896z M442.752 141.76C442.752 123.776 439.808 107.3919999999999 433.856 92.48C427.904 77.696 419.712 64.832 409.216 54.08S386.24 35.008 371.8400000000001 29.056C357.4400000000001 23.168 341.824 20.1600000000001 324.992 20.1600000000001C307.0080000000001 20.1600000000001 290.432 23.6800000000001 275.392 30.6560000000001C260.288 37.6320000000001 247.296 48.0640000000001 236.416 61.888C225.472 75.7760000000001 217.024 92.928 211.072 113.5360000000001C205.056 134.144 202.048 158.0160000000001 202.048 185.1520000000001C202.048 218.3680000000001 206.016 247.808 213.952 273.408C221.888 299.072 232.704 320.576 246.592 337.9200000000001C260.416 355.2640000000001 276.672 368.4480000000001 295.36 377.4080000000002C313.92 386.496 334.08 390.976 355.776 390.976C369.2800000000001 390.976 381.568 390.0800000000001 392.64 388.2240000000001C403.712 386.432 412.608 383.9360000000001 419.264 380.736V328.512C410.752 332.8639999999999 401.664 336.512 392 339.52C382.336 342.528 371.264 344 358.7200000000001 344C344.704 344 331.776 341.184 320 335.4880000000001C308.1600000000001 329.8560000000001 297.984 321.5360000000001 289.344 310.5920000000001C280.768 299.7120000000001 273.984 286.2080000000001 269.12 270.0800000000002C264.192 254.0160000000002 261.632 235.4560000000002 261.504 214.4640000000002H263.04C270.7200000000001 226.3680000000002 281.088 235.6480000000002 294.144 242.4960000000002C307.2 249.3440000000002 322.624 252.7360000000002 340.288 252.7360000000002C355.968 252.7360000000002 370.048 250.2400000000003 382.656 245.1200000000003C395.264 240.0640000000002 406.016 232.7680000000003 414.9120000000001 223.1040000000003C423.8080000000001 213.5680000000003 430.7200000000001 201.8560000000002 435.5200000000001 188.0960000000002C440.32 174.4 442.752 158.912 442.752 141.76zM384.256 137.024C384.256 147.3920000000001 383.04 156.8 380.608 165.2480000000001C378.176 173.76 374.528 181.0560000000001 369.6 187.1360000000001C364.672 193.2800000000001 358.528 197.9520000000001 351.104 201.2800000000001C343.68 204.6720000000002 334.976 206.2720000000001 324.992 206.2720000000001S306.176 204.5440000000001 298.624 200.8960000000001C291.008 197.3120000000001 284.672 192.6400000000001 279.488 186.7520000000001C274.3039999999999 180.9280000000001 270.464 174.2720000000001 267.8399999999999 166.72C265.2159999999999 159.232 263.9359999999999 151.616 263.9359999999999 143.744C263.9359999999999 135.232 265.152 126.528 267.584 117.6320000000001C270.016 108.7360000000001 273.728 100.6080000000001 278.72 93.2480000000001C283.712 85.952 290.112 79.8720000000001 297.856 75.1360000000001S314.816 68.032 325.504 68.032C334.976 68.032 343.4240000000001 69.76 350.784 73.2800000000001C358.144 76.8000000000001 364.224 81.6640000000001 369.152 87.8080000000001C374.08 94.0160000000001 377.792 101.3120000000001 380.416 109.6960000000001C382.976 118.0800000000001 384.256 127.168 384.256 137.024z M693.76 385.024V153.5360000000001H747.008V105.2800000000001H693.76V26.5600000000001H637.504V105.2800000000001H475.264V154.0480000000001C489.92 170.5600000000002 504.96 188.4160000000002 520.384 207.6800000000001C535.808 226.9440000000001 550.6560000000001 246.5920000000001 564.864 266.6880000000001C579.1360000000001 286.7840000000001 592.32 306.9440000000001 604.48 327.0400000000001C616.64 347.2000000000001 626.88 366.528 635.2 385.0240000000001H693.76zM637.504 153.472V304C619.328 271.36 601.408 242.88 583.616 218.496C565.888 194.1759999999999 549.2479999999999 172.48 533.76 153.472H637.504z M1029.504 282.496L944.2559999999997 153.024L1028.4799999999998 26.496H961.28L916.288 105.728C913.472 110.592 910.144 116.736 906.304 124.2239999999999H905.28C904.64 122.752 901.12 116.608 894.784 105.728L849.024 26.496H782.016L868.992 152L786.496 282.496H854.016L898.24 199.232C901.568 193.088 904.832 186.752 907.968 180.2239999999999H908.736L966.016 282.496H1029.504z" />
    <glyph glyph-name="rewind-128x"
      unicode="&#xE624;"
      horiz-adv-x="1024" d=" M0 704L256 512L256 896z M256 704L512 512L512 896z M197.952 393.024V26.496H139.968V321.9839999999999C129.472 314.4959999999999 118.144 308.0959999999999 106.112 302.848C94.016 297.5999999999999 80.256 292.992 64.768 288.9599999999999V338.4319999999999C74.432 341.632 83.776 344.9599999999999 92.8 348.416S110.656 355.8399999999999 119.424 360.1919999999999C128.192 364.5439999999999 137.024 369.4079999999999 145.92 374.7199999999999C154.816 380.0959999999999 164.032 386.176 173.568 392.9599999999999H197.952z M458.752 26.496H233.728V54.2719999999999C233.728 65.664 235.328 76.2879999999999 238.464 86.1439999999999C241.6 96.0639999999999 245.888 105.4079999999999 251.2 114.1759999999999C256.512 122.944 262.784 131.1999999999999 269.952 138.944C277.12 146.688 284.8 154.1759999999999 292.928 161.472C301.056 168.704 309.44 175.744 317.952 182.464S334.784 196.0319999999999 342.976 202.8159999999999C350.656 209.3439999999999 357.632 215.68 363.968 221.9519999999999C370.3040000000001 228.224 375.7440000000001 234.6879999999999 380.2240000000001 241.344C384.7040000000001 247.9999999999999 388.2240000000001 255.104 390.7200000000001 262.464C393.216 269.8879999999999 394.4960000000001 277.952 394.4960000000001 286.592C394.4960000000001 296.064 393.0240000000001 304.384 390.1440000000001 311.488C387.2000000000001 318.592 383.1680000000001 324.4799999999999 377.9200000000001 329.2159999999999S366.4640000000001 337.5999999999999 359.2960000000001 339.9679999999999C352.1280000000001 342.3999999999999 344.3200000000001 343.6159999999999 335.8080000000001 343.6159999999999C321.1520000000001 343.6159999999999 306.2400000000001 340.2239999999998 291.0720000000001 333.3759999999999C275.9040000000001 326.5919999999999 261.3120000000001 316.2879999999999 247.2960000000001 302.6559999999999V358.3999999999999C254.6560000000001 363.9039999999999 262.0160000000001 368.7039999999999 269.5680000000001 372.7999999999999C277.0560000000001 376.8959999999999 284.8000000000001 380.2879999999999 292.8000000000001 383.0399999999999S309.1840000000001 387.8399999999998 318.0800000000001 389.1839999999999C326.848 390.4 336.256 390.976 346.24 390.976C362.368 390.976 377.088 388.8640000000001 390.272 384.576C403.456 380.352 414.656 374.0800000000001 424 365.8240000000001C433.344 357.5680000000001 440.512 347.3280000000001 445.632 334.9760000000001C450.688 322.6880000000001 453.248 308.4800000000002 453.248 292.4800000000002C453.248 277.9520000000001 451.456 264.9600000000002 447.872 253.3760000000001C444.288 241.7920000000002 439.2320000000001 230.9760000000001 432.64 220.9920000000001C426.048 211.0080000000001 418.112 201.4720000000001 408.768 192.5120000000001C399.424 183.4880000000001 388.992 174.2720000000001 377.536 164.7360000000001C367.872 156.9280000000001 358.208 149.3120000000001 348.672 141.8880000000002C339.072 134.5280000000001 330.432 127.2320000000002 322.816 120.1280000000002C315.136 113.0880000000002 308.928 105.9840000000002 304.192 98.8800000000001C299.456 91.8400000000002 297.088 84.6720000000001 297.088 77.5040000000001V76.2240000000002H458.816V26.496z M516.224 126.528C516.224 136.8960000000001 517.504 146.88 520.128 156.544C522.688 166.208 526.5920000000001 175.168 531.7760000000001 183.2959999999999C536.96 191.488 543.4240000000001 198.7839999999999 551.296 205.3119999999999C559.104 211.8399999999999 568.32 217.0879999999999 578.816 221.0559999999999C563.328 229.7599999999999 550.976 240.896 541.8240000000001 254.4C532.608 267.968 528 283.0080000000001 528 299.52C528 312.704 530.688 324.8640000000001 536.128 336C541.504 347.2000000000001 549.056 356.8640000000001 558.6560000000001 364.992C568.2560000000001 373.184 579.5200000000001 379.584 592.5120000000001 384.128C605.504 388.7359999999999 619.648 390.9759999999999 635.008 390.9759999999999C650.4960000000001 390.9759999999999 664.768 388.6719999999999 677.888 383.9999999999999C690.9440000000001 379.392 702.272 372.9279999999999 711.8720000000001 364.7359999999999C721.4720000000001 356.6079999999999 728.8960000000001 346.9439999999999 734.272 335.7439999999999C739.5840000000001 324.608 742.272 312.512 742.272 299.5199999999999C742.272 283.0079999999998 737.6640000000001 268.032 728.5120000000001 254.3999999999999C719.36 240.8319999999999 707.2 229.6959999999999 692.032 221.0559999999998C702.336 217.0239999999998 711.488 211.8399999999998 719.4240000000001 205.4399999999998C727.3600000000001 199.0399999999999 733.9520000000001 191.7439999999998 739.3280000000001 183.5519999999998C744.6400000000001 175.4239999999998 748.6720000000001 166.4639999999998 751.3600000000001 156.7999999999999C754.0480000000001 147.1999999999998 755.3920000000002 137.0239999999999 755.3920000000002 126.5279999999998C755.3920000000002 110.9119999999998 752.4480000000002 96.5119999999998 746.6240000000001 83.5199999999998C740.8000000000002 70.5279999999998 732.6080000000002 59.3919999999997 722.1120000000001 50.1759999999997S699.008 33.7279999999997 684.3520000000001 28.5439999999998C669.6960000000001 23.4239999999998 653.5040000000001 20.7999999999997 635.8400000000001 20.7999999999997C618.3680000000002 20.7999999999997 602.3040000000001 23.4239999999998 587.7120000000001 28.5439999999998C573.1200000000001 33.7279999999997 560.5120000000001 40.8959999999997 549.9520000000001 50.1759999999997C539.3280000000001 59.4559999999997 531.1360000000001 70.5279999999997 525.1840000000001 83.5199999999998C519.232 96.5119999999999 516.224 110.848 516.224 126.528zM572.736 131.52C572.736 121.408 574.208 112.192 577.216 104C580.224 95.872 584.448 88.96 589.952 83.264C595.456 77.6320000000001 602.048 73.28 609.856 70.2720000000001S626.24 65.792 635.712 65.792C644.864 65.792 653.312 67.328 660.992 70.4C668.6719999999999 73.536 675.264 77.888 680.896 83.648C686.4639999999999 89.408 690.88 96.3200000000001 694.016 104.384C697.1519999999999 112.5120000000001 698.752 121.5360000000001 698.752 131.52C698.752 140.736 697.28 149.312 694.2719999999999 157.376C691.2639999999999 165.504 687.04 172.48 681.536 178.496S669.4399999999999 189.2479999999999 661.632 192.768S645.2479999999999 198.0160000000001 635.776 198.0160000000001C626.752 198.0160000000001 618.4319999999999 196.4160000000001 610.6239999999999 193.1520000000001S596.2239999999999 185.3440000000001 590.5919999999999 179.3920000000001C585.0239999999999 173.504 580.6079999999998 166.4640000000001 577.4719999999999 158.2720000000001C574.336 150.144 572.736 141.184 572.736 131.52zM585.024 293.504C585.024 286.016 586.368 279.04 589.056 272.64C591.744 266.24 595.3280000000001 260.608 599.808 255.872S609.6 247.424 615.68 244.736C621.76 242.112 628.2879999999999 240.704 635.328 240.704S648.832 242.048 654.976 244.8C661.056 247.5519999999999 666.368 251.328 670.976 256.064C675.584 260.8 679.168 266.432 681.856 272.832C684.544 279.2960000000001 685.888 286.144 685.888 293.44C685.888 300.928 684.6080000000001 307.968 681.984 314.4319999999999C679.36 320.9599999999999 675.84 326.5279999999999 671.36 331.2C666.88 335.872 661.504 339.584 655.36 342.208C649.216 344.896 642.496 346.24 635.328 346.24C627.8399999999999 346.24 620.992 344.896 614.848 342.144C608.704 339.3920000000001 603.3919999999999 335.616 598.976 330.752C594.56 325.952 591.104 320.32 588.736 313.856C586.176 307.52 585.024 300.6720000000001 585.024 293.504z M1029.504 282.496L944.2559999999997 153.024L1028.4799999999998 26.496H961.28L916.288 105.728C913.472 110.592 910.144 116.736 906.304 124.2239999999999H905.28C904.64 122.752 901.12 116.608 894.784 105.728L849.024 26.496H782.016L868.992 152L786.496 282.496H854.016L898.24 199.232C901.568 193.088 904.832 186.752 907.968 180.2239999999999H908.736L966.016 282.496H1029.504z" />
    <glyph glyph-name="go-to-live"
      unicode="&#xE625;"
      horiz-adv-x="1024" d=" M704 832H320C249.6 832 192 774.4 192 704V320C192 249.6 249.6 192 320 192H704C774.4 192 832 249.6 832 320V704C832 774.4 774.4 832 704 832zM768 320C768 284.736 739.328 256 704 256H320C284.6720000000001 256 256 284.736 256 320V704C256 739.264 284.6720000000001 768 320 768H704C739.328 768 768 739.264 768 704V320z" />
    <glyph glyph-name="live"
      unicode="&#xE626;"
      horiz-adv-x="1024" d=" M704 832H320C249.6 832 192 774.4 192 704V320C192 249.6 249.6 192 320 192H704C774.4 192 832 249.6 832 320V704C832 774.4 774.4 832 704 832z" />
    <glyph glyph-name="quality-1"
      unicode="&#xE627;"
      horiz-adv-x="1024" d=" M704 256.1280000000001H832V192.1280000000001H704V256.1280000000001z M512 256.1280000000001H640V192.1280000000001H512V256.1280000000001z M320 256.1280000000001H448V192.1280000000001H320V256.1280000000001z M128 448H256V192.1279999999999H128V448z" />
    <glyph glyph-name="quality-2"
      unicode="&#xE628;"
      horiz-adv-x="1024" d=" M704 256.1280000000001H832V192.1280000000001H704V256.1280000000001z M512 256.1280000000001H640V192.1280000000001H512V256.1280000000001z M320 576H448V192.1279999999999H320V576z M128 448H256V192.1279999999999H128V448z" />
    <glyph glyph-name="quality-3"
      unicode="&#xE629;"
      horiz-adv-x="1024" d=" M704 256.1280000000001H832V192.1280000000001H704V256.1280000000001z M512 703.9359999999999H640V192.1279999999999H512V703.9359999999999z M320 576H448V192.1279999999999H320V576z M128 448H256V192.1279999999999H128V448z" />
    <glyph glyph-name="quality-4"
      unicode="&#xE62A;"
      horiz-adv-x="1024" d=" M704 831.8720000000001H832V192.1279999999999H704V831.872z M512 703.9359999999999H640V192.1279999999999H512V703.9359999999999z M320 576H448V192.1279999999999H320V576z M128 448H256V192.1279999999999H128V448z" />
    <glyph glyph-name="settings"
      unicode="&#xE62B;"
      horiz-adv-x="1024" d=" M896 470.528V558.0799999999999L883.712 562.688L790.016 593.408L765.44 653.312L813.056 754.688L751.616 816.1279999999999L739.328 809.9839999999999L651.776 765.44L591.872 790.016L553.472 896H465.92L461.312 883.712L430.592 790.016L370.688 765.44L270.848 813.056L209.408 751.616L215.552 739.328L260.096 651.776L235.52 591.8720000000001L128 553.472V465.92L140.288 461.312L233.984 430.592L258.56 370.688L210.944 269.312L272.384 207.8720000000001L284.6720000000001 214.0160000000001L372.2240000000001 258.5600000000001L432.1280000000001 233.9840000000001L470.528 128H558.08L562.688 140.288L593.408 233.9840000000001L653.312 258.5600000000001L754.688 210.9440000000001L816.1279999999999 272.384L809.9839999999999 284.6720000000001L765.4399999999999 372.2240000000001L790.016 432.1280000000001L896 470.528zM512 381.4400000000001C439.808 381.4400000000001 381.44 439.8080000000001 381.44 512S439.808 642.56 512 642.56S642.56 584.192 642.56 512S584.192 381.4400000000001 512 381.4400000000001z" />
    <glyph glyph-name="check"
      unicode="&#xE62C;"
      horiz-adv-x="1024" d=" M42.12849408 455.8024620799999L8.08049408 492.5384620799999C-0.62350592 502.26646208 -0.62350592 517.7544620799999 9.48849408 526.9704620800001L107.66449408 617.72246208C112.27249408 621.94646208 117.90449408 624.12246208 123.92049408 624.12246208C130.83249408 624.12246208 136.97649408 621.3064620800001 141.58449408 616.31446208L411.53649408 326.90646208L876.0484940800001 921.85046208C880.65649408 927.86646208 887.69649408 931.06646208 895.1204940800001 931.06646208C900.75249408 931.06646208 905.74449408 929.27446208 909.96849408 925.94646208L1016.08049408 844.02646208C1021.20049408 840.31446208 1024.40049408 834.81046208 1025.29649408 828.15446208C1025.68049408 821.7544620799999 1024.27249408 815.09846208 1020.17649408 810.49046208L423.6964940800001 46.5864620799999L42.12849408 455.8024620799999z" />
    <glyph glyph-name="audio-track"
      unicode="&#xE62D;"
      horiz-adv-x="1024" d=" M256 960L256 896L768 896L768 960L256 960zM192 832L192 768L832 768L832 832L192 832zM128 704L128 128L896 128L896 704L128 704zM710.249984 646.3750016C718.761984 646.3750016 726.609024 643.3179968 732.625024 637.7500032C796.689024 578.4859968000001 832 499.8980031999999 832 416.2499968C832 332.217984 796.689024 253.2000000000001 732.625024 194C726.225024 188.56 718.438976 185.6250240000001 710.374976 185.6250240000001C701.926976 185.6250240000001 694.147008 188.374016 687.875008 193.750016C681.731008 199.638016 678.500032 207.310976 678.499968 215.374976C678.499968 223.502976 681.737024 231.0540160000001 687.625024 236.750016C739.593024 284.494016 768.249984 348.281984 768.249984 416.2499968C768.249984 483.6420032 739.654016 547.1889984 687.750016 595.1249984C681.734016 600.8849984 678.499968 608.5 678.499968 616.5C678.499968 624.5 681.737024 631.9929984 687.625024 637.6249984C693.705024 643.3209984 701.801984 646.3750016 710.249984 646.3750016zM512 640L512 192L320 320L256 320L256 512L320 512L512 640zM615.8750016 571.8750016C624.2590016 571.8750016 632.1089984 568.8180032 638.1249984 563.2499968C681.004992 523.5699968 704.384 471.1739968000001 704 415.7500032000001C704.384 361.2220160000001 680.428992 307.5399680000001 638.1249984 268.499968C632.3649984 263.1240320000001 624.5150016 260.124992 615.8750016 260.124992C607.7470016 260.124992 599.8300032 263.001984 593.7500032 268.2499840000001C587.4139968 274.073984 584.1249984 281.7470080000001 584.1249984 289.875008C584.1249984 298.067008 587.4809984 305.6789760000001 593.6249984 311.374976C623.8969984 339.406976 640.625024 376.454016 640.625024 415.7500032000001C640.625024 455.3020031999999 623.9609984 492.5929984000001 593.6249984 520.6249984C587.4809984 526.3209984 584.1249984 534 584.1249984 542C584.1249984 550 587.4809984 557.5540032 593.6249984 563.2499968C599.6409984 568.8179968 607.4910016 571.8750016 615.8750016 571.8750016z" />
    <glyph glyph-name="audio-only-b"
      unicode="&#xE62E;"
      horiz-adv-x="1024" d=" M452.288 64C304.064 64 183.488 184.576 183.488 332.8C183.488 349.3119999999999 196.864 362.688 213.376 362.688S243.2 349.312 243.2 332.8C243.2 217.536 336.96 123.712 452.288 123.712S661.376 217.536 661.376 332.8C661.376 347.712 659.328 363.52 655.1039999999999 381.248C652.2879999999999 393.088 656.896 405.5039999999999 666.8799999999999 412.544C738.1759999999999 463.104 780.7999999999998 544.768 780.8639999999999 631.104C780.9279999999999 702.72 753.0239999999999 770.24 702.2719999999999 821.184C651.52 872.064 584.064 900.16 512.3839999999999 900.224C512.2559999999999 900.224 512.1919999999999 900.224 512.0639999999999 900.224C381.6319999999999 900.224 270.5919999999999 806.656 248.0639999999999 677.696C245.12 661.44 229.696 649.9200000000001 213.376 653.44C197.184 656.256 186.304 671.744 189.12 688C216.704 845.696 352.448 960 512 960C512.128 960 512.256 960 512.384 960C600 959.872 682.432 925.568 744.512 863.424C806.5279999999999 801.216 840.704 718.784 840.5759999999999 631.104C840.4479999999999 532.096 794.6879999999999 438.0800000000001 717.184 375.808C719.808 360.832 721.088 346.624 721.088 332.8C721.088 184.576 600.448 64 452.288 64z M332.8 302.9120000000001C316.288 302.9120000000001 302.9120000000001 316.288 302.9120000000001 332.8000000000001C302.9120000000001 372.0320000000001 318.7840000000001 402.0480000000001 332.0320000000001 420.288L368 469.4400000000001L335.552 520.896C314.1760000000001 554.816 302.9120000000001 593.152 302.9120000000001 631.6800000000001C303.04 746.88 396.864 840.512 512 840.512C567.872 840.448 620.352 818.56 659.904 779.008C699.392 739.392 721.152 686.912 721.088 631.104C721.088 614.6560000000001 707.712 601.28 691.1999999999999 601.28H691.1999999999999C674.6879999999999 601.28 661.376 614.72 661.376 631.232C661.4399999999999 670.976 645.8879999999999 708.48 617.664 736.768C589.376 765.184 551.872 780.736 512 780.8C429.76 780.8 362.752 713.9200000000001 362.688 631.552C362.688 604.3520000000001 370.752 577.152 386.112 552.768L429.376 484.096C435.84 473.728 435.392 460.4160000000001 428.1600000000001 450.5599999999999L380.352 385.088C372.288 374.08 362.688 355.968 362.688 332.8C362.688 316.288 349.312 302.9120000000001 332.8 302.9120000000001z" />
    <glyph glyph-name="playback-speed"
      unicode="&#xE62F;"
      horiz-adv-x="1024" d=" M345.664 959.872L345.664 959.872C345.664 924.736 374.464 831.8720000000001 409.664 831.8720000000001H601.664C636.864 831.8720000000001 665.664 924.736 665.664 959.936V959.872H345.664z M801.472 657.5360000000001L717.504 754.1759999999999L786.368 814.848L870.336 718.2719999999999z M473.664 704H537.664V448H473.664V704z M505.664 832C311.232 832 153.664 674.432 153.664 480C153.664 285.568 311.232 128 505.664 128C700.096 128 857.664 285.568 857.664 480C857.664 674.432 700.032 832 505.664 832zM505.664 192C346.88 192 217.664 321.216 217.664 480S346.88 768 505.664 768S793.664 638.784 793.664 480S664.448 192 505.664 192z" />
    <glyph glyph-name="share"
      unicode="&#xE630;"
      horiz-adv-x="1024" d=" M896 576L805.504 672L899.328 672L1024 543.6800000000001L900.032 416L806.208 416L896 512L448 512L448 576z M704 256H128C92.672 256 64 284.736 64 320V768C64 803.264 92.672 832 128 832H704C739.328 832 768 803.264 768 768H832C832 838.4 774.4 896 704 896H128C57.6 896 0 838.4 0 768V320C0 249.6 57.6 192 128 192H704C774.4 192 832 249.6 832 320H768C768 284.736 739.328 256 704 256z" />
    <glyph glyph-name="expand"
      unicode="&#xE631;"
      horiz-adv-x="1024" d=" M832 896H256C185.6 896 128 838.4 128 768V628.2239999999999C148.096 635.392 169.472 640 192 640V768C192 803.264 220.672 832 256 832H832C867.328 832 896 803.264 896 768V384C896 348.736 867.328 320 832 320H640C640 297.472 635.392 276.096 628.224 256H832C902.4 256 960 313.6 960 384V768C960 838.4 902.4 896 832 896z M448.192 576L448.192 576C448.128 576 448.064 576 448 576H192C191.936 576 191.872 576 191.808 576H191.808C121.536 575.8720000000001 64 518.336 64 448V432.704V320C64 249.6 121.6 192 192 192H448C518.4 192 576 249.6 576 320V432.704V448C576 518.336 518.464 575.8720000000001 448.192 576z M576 768L512 704L722.752 704L425.344 470.6559999999999L470.656 425.3440000000001L768 658.752L768 448L832 512L832 768z" />
    <glyph glyph-name="zoom"
      unicode="&#xE632;"
      horiz-adv-x="1024" d=" M576 832C434.624 832 320 717.376 320 576C320 516.8781824 340.8351232 463.0885632 374.5 419.7500032000001L142.8750016 188.124992L188.1249984 142.875008L419.7500032 374.499968C463.0885632 340.8351360000001 516.8781824 320 576 320C717.376 320 832 434.624 832 576C832 717.376 717.376 832 576 832zM576 768C681.856 768 768 681.856 768 576C768 470.144 681.856 384 576 384C470.144 384 384 470.144 384 576C384 681.856 470.144 768 576 768z" />
    <glyph glyph-name="camera-angle"
      unicode="&#xE633;"
      horiz-adv-x="1024" d=" M128 768C128 697.3075520216585 185.3075520216584 640 256 640C326.6924479783416 640 384 697.3075520216585 384 768C384 838.6924479783415 326.6924479783416 896 256 896C185.3075520216584 896 128 838.6924479783415 128 768z M448 768C448 697.3075520216585 505.3075520216584 640 576 640C646.6924479783415 640 704 697.3075520216585 704 768C704 838.6924479783415 646.6924479783415 896 576 896C505.3075520216584 896 448 838.6924479783415 448 768z M64 576.0640000000001H768V256.0640000000001H64V576.0640000000001z M960 256L832 320L832 512L960 576z" />
    <glyph glyph-name="pip"
      unicode="&#xE634;"
      horiz-adv-x="1024" d=" M832 896H192C121.6 896 64 838.4 64 768V320C64 249.6 121.6 192 192 192H832C902.4 192 960 249.6 960 320V768C960 838.4 902.4 896 832 896zM832 256H192C156.672 256 128 284.736 128 320V768C128 803.264 156.672 832 192 832H832C867.328 832 896 803.264 896 768V320C896 284.736 867.328 256 832 256z M576 768H832V576H576V768z" />
    <glyph glyph-name="scrubber"
      unicode="&#xE635;"
      horiz-adv-x="1024" d=" M396.6447232 525.8517184C396.6447232 455.1592704216584 453.9522752216584 397.8517184 524.6447232 397.8517184C595.3371711783416 397.8517184 652.6447232 455.1592704216584 652.6447232 525.8517184C652.6447232 596.5441663783415 595.3371711783416 653.8517184 524.6447232 653.8517184C453.9522752216584 653.8517184 396.6447232 596.5441663783415 396.6447232 525.8517184z" />
    <glyph glyph-name="cast"
      unicode="&#xE636;"
      horiz-adv-x="1024" d=" M557.7500032 896C497.3979968 896 448 846.6019968 448 786.2499968L448 237.750016C448 177.334016 497.3979968 128 557.7500032 128L786.249984 128C846.665984 128 896 177.398016 896 237.750016L896 786.2499968C896 846.6020032 846.601984 896 786.249984 896L557.7500032 896zM557.7500032 832L786.249984 832C811.465984 832 832 811.4659968 832 786.2499968L832 237.750016C832 212.534016 811.401984 192 786.249984 192L557.7500032 192C532.5979968 192 512 212.534016 512 237.750016L512 786.2499968C512 811.4660031999999 532.5979968 832 557.7500032 832zM187.6249984 815.7500032C179.3689984 815.7499968 171.1150016 812.6150016 164.8750016 806.3750016C152.8430016 793.8950016 152.8430016 773.8550016 164.8750016 761.3750016C233.9310016 692.3190016 268.3750016 602.4230016 268.3750016 512.3750016C268.3750016 421.8150016 234.4430016 331.806016 164.8750016 262.750016C152.8430016 250.2700160000001 152.8430016 229.729984 164.8750016 217.2499840000001C171.4030016 211.233984 179.3630016 208.2499840000001 187.8750016 208.2499840000001C195.8750016 208.2499840000001 203.8470016 211.233984 210.3750016 217.2499840000001C291.9110016 298.785984 332.5 405.8150016 332.5 512.3750016C332.5 618.9350016000001 291.3990016 725.3510016 210.3750016 806.3750016C204.1350016 812.6150016 195.8809984 815.7500032 187.6249984 815.7500032zM86.8750016 714.7500032C78.7470016 714.7500032 70.6150016 711.6150016 64.3750016 705.3750016C51.89499968 692.8950016 51.89499968 672.8550015999999 64.3750016 660.3750016C105.3990016 619.3510016 125.8750016 565.8910016 125.8750016 511.8750016C125.8750016 458.3710016 105.3990016 404.8990016 64.3750016 363.875008C51.89499968 351.395008 51.89499968 330.854976 64.3750016 318.374976C70.9030016 312.358976 78.8750016 309.2499840000001 86.8750016 309.2499840000001C95.3870016 309.2499840000001 103.3590016 312.358976 109.3750016 318.374976C162.8790016 371.878976 189.8870016 442.3070016000001 189.3750016 511.8750016C189.8230016 581.7630016 162.7539968 651.8070015999999 109.2499968 705.3750016C103.0099968 711.6150016 95.0030016 714.7500032 86.8750016 714.7500032zM672 384A64 64 0 0 1 608 320A64 64 0 0 1 672 256A64 64 0 0 1 736 320A64 64 0 0 1 672 384z" />
    <glyph glyph-name="close"
      unicode="&#xE637;"
      horiz-adv-x="1024" d=" M545 535.8750016L976.2500032 104L920 47.7499968L488.1249984 479L56.2499968 47.7499968L0 104L431.2500032 535.8750016L0 967.7499968L56.2500032 1024L488.1250048 592.7499968L920 1024L976.2500032 967.7499968L545 535.8750016z" />
    <glyph glyph-name="chevron-left"
      unicode="&#xE638;"
      horiz-adv-x="1024" d=" M497.3650112 540.7614016L811.700992 211.565888L680.251392 80.1162879999999L219.6062912 540.7614016L680.251392 1001.40652544L811.700992 869.9569216z" />
    <glyph glyph-name="chevron-right"
      unicode="&#xE639;"
      horiz-adv-x="1024" d=" M338.5629056 71.022976L207.1344256 202.4533759999999L521.4198656 531.592576L207.1344256 860.738176L338.5629056 992.16857344L799.1344 531.592576z" />
    <glyph glyph-name="mark"
      unicode="&#xE640;"
      horiz-adv-x="1024" d=" M512 1000.6779648C423.6 1000.6779648 352 929.0779648 352 840.6779648L352 200.6779648000001C352 112.3579648 423.6 40.6779648 512 40.6779648C600.4 40.6779648 672 112.3579648 672 200.6779648000001L672 840.6779648C672 929.0779648 600.4 1000.6779648 512 1000.6779648z" />
    <glyph glyph-name="download"
      unicode="&#xE641;"
      horiz-adv-x="1024" d=" M471.0896256 847.4858495999999L471.0896256 333.2499840000001L343.8844352 453.8702784000001L296.0990528 407.3797184000001L512.8750016 212.4292480000002L724.5707520000001 404.3396224000002L680.370304 454.3702784000002L554.4103808 333.5000320000002L554.4103808 847.4858496000002zM260.8750016 186.054208L260.8750016 127.8136960000001L761.124992 127.8136960000001L761.124992 186.054208z" />
  </font>
</defs>
</svg>
